<?xml version="1.0" standalone="no"?>
<!DOCTYPE svg PUBLIC "-//W3C//DTD SVG 1.1//EN" "http://www.w3.org/Graphics/SVG/1.1/DTD/svg11.dtd" >
<svg xmlns="http://www.w3.org/2000/svg">
<metadata></metadata>
<defs>
<font id="mongolian_baitiregular" horiz-adv-x="1024" >
<font-face units-per-em="2048" ascent="1638" descent="-410" />
<missing-glyph horiz-adv-x="512" />
<glyph horiz-adv-x="2048" />
<glyph horiz-adv-x="2048" />
<glyph unicode="&#xd;" horiz-adv-x="894" />
<glyph unicode=" "  horiz-adv-x="512" />
<glyph unicode="&#x09;" horiz-adv-x="512" />
<glyph unicode="&#xa0;" horiz-adv-x="512" />
<glyph unicode="!" horiz-adv-x="682" d="M228 1248q0 31 9 57t24.5 44t36 28t44.5 10q48 0 80 -38t32 -113q0 -12 -1 -28.5t-3 -38.5l-90 -810h-38l-88 810q-6 52 -6 79zM229 83q0 23 9 43t24 35t35 23.5t43 8.5q22 0 42.5 -9t35.5 -24t24 -35t9 -42q0 -23 -9 -43t-24 -35t-35 -24t-43 -9t-43 9t-35 24t-24 35 t-9 43z" />
<glyph unicode="&#x22;" horiz-adv-x="836" d="M133 1265q0 64 26.5 93t71.5 29t73.5 -29.5t28.5 -78.5q0 -20 -6.5 -64.5t-19.5 -116.5l-54 -295h-43l-55 296q-11 61 -16.5 102.5t-5.5 63.5zM498 1266q0 63 28 92t74 29q43 0 71.5 -29t28.5 -78q0 -43 -4.5 -88.5t-14.5 -95.5l-57 -293h-48l-76 413q-1 13 -1.5 25 t-0.5 25z" />
<glyph unicode="#" d="M37 427v82h187l69 343h-256v80h275l91 455h83l-91 -455h337l97 455h83l-95 -455h170v-80h-185l-70 -343h255v-82h-272l-93 -455h-81l91 455h-339l-95 -455h-83l93 455h-171zM308 509h339l72 343h-341z" />
<glyph unicode="$" d="M108 51v283h44q11 -138 85.5 -210.5t224.5 -86.5v584q-225 139 -300 246q-53 77 -53 185q0 61 23 116t68 98.5t111 72.5t151 39v92h64v-92q42 -2 76 -7t62 -12q28 -8 192 -69v-299h-39q-7 79 -27 136.5t-55.5 96t-87 59.5t-121.5 28v-508q252 -176 323 -260 q35 -42 53.5 -93t18.5 -114q0 -68 -26.5 -130t-77.5 -111.5t-124.5 -82t-166.5 -40.5v-128h-64v128q-48 2 -91 7.5t-84 14.5q-41 8 -85.5 22t-93.5 35zM265 1117q0 -37 10 -70.5t33 -66t60.5 -66t93.5 -69.5v465q-100 -12 -148.5 -63.5t-48.5 -129.5zM526 37 q116 21 176 88.5t60 160.5q0 66 -40 125q-40 60 -196 167v-541z" />
<glyph unicode="%" horiz-adv-x="1706" d="M75 1022q0 89 25 157t65.5 114.5t92 70t103.5 23.5q63 0 116 -29t91.5 -78.5t60 -116t21.5 -141.5q0 -89 -23 -157t-62.5 -114t-91.5 -69.5t-109 -23.5q-60 0 -113 27t-92 75.5t-61.5 115.5t-22.5 146zM234 1015q0 -156 34 -228.5t94 -72.5q55 0 92.5 75t37.5 231 q0 158 -34 236t-96 78q-28 0 -51.5 -17t-40.5 -55t-26.5 -99t-9.5 -148zM315 -56l988 1443h89l-988 -1443h-89zM1060 308q0 89 25 157t65.5 114.5t92 70t103.5 23.5q63 0 116 -29t91.5 -78.5t60 -116t21.5 -141.5q0 -89 -23 -157t-62.5 -114t-91.5 -69.5t-109 -23.5 q-60 0 -113 27t-92 75.5t-61.5 115.5t-22.5 146zM1219 301q0 -156 34 -228.5t94 -72.5q55 0 92.5 75t37.5 231q0 158 -34 236t-96 78q-28 0 -51.5 -17t-40.5 -55t-26.5 -99t-9.5 -148z" />
<glyph unicode="&#x26;" horiz-adv-x="1593" d="M75 267q0 121 87 241q86 121 327 250q-24 53 -39.5 94.5t-25 76t-13 65t-3.5 62.5q0 75 27 136t74.5 104.5t111 67t136.5 23.5q58 0 107.5 -19t85.5 -52t56 -77.5t20 -95.5q0 -107 -73 -186q-36 -40 -99.5 -83.5t-156.5 -91.5q64 -114 130 -217t135 -197q176 211 176 354 q0 19 -6 38.5t-17.5 35t-29 26.5t-40.5 14v37h420v-37q-87 -8 -129 -39q-41 -32 -129 -190q-89 -159 -198 -297q45 -52 84 -88t75 -58t70.5 -31.5t70.5 -9.5q69 0 117 37.5t68 110.5l37 -27q-37 -141 -119 -208t-191 -67q-41 0 -82 10.5t-84.5 34t-89 60.5t-95.5 90 q-125 -110 -224 -153q-99 -42 -212 -42q-83 0 -149 24t-113 64.5t-72 95t-25 114.5zM282 359q0 -53 18 -101.5t51 -85.5t80 -59.5t106 -22.5q32 0 61 5t61 19t70 40t89 68q-66 91 -111.5 156t-71.5 107t-53.5 93t-58.5 113q-241 -139 -241 -332zM579 1135q0 -26 3.5 -51.5 t13 -57.5t25.5 -75t42 -104q247 118 247 301q0 35 -12 65.5t-32.5 53t-49 35t-61.5 12.5q-44 0 -77 -17.5t-55 -44t-33 -58t-11 -59.5z" />
<glyph unicode="'" horiz-adv-x="369" d="M81 1265q0 64 26 93t71 29t74.5 -29.5t29.5 -77.5q-1 -19 -6.5 -64t-19.5 -118l-54 -295h-44l-54 296q-11 62 -17 103t-6 63z" />
<glyph unicode="(" horiz-adv-x="682" d="M84 491q0 310 153 565q153 256 399 366v-42q-122 -67 -202 -186q-79 -118 -118 -299q-39 -182 -39 -378q0 -214 33 -389q26 -139 63 -221q37 -84 99 -161t164 -147v-37q-152 77 -252 178q-144 145 -222 342q-78 196 -78 409z" />
<glyph unicode=")" horiz-adv-x="682" d="M46 -401q123 69 202 187q81 119 118 298q19 91 29 185.5t10 193.5q0 213 -33 389q-26 139 -63 221q-38 83 -99.5 160t-163.5 147v42q153 -76 253 -177q143 -146 221 -343t78 -409q0 -310 -153 -565q-154 -257 -399 -366v37z" />
<glyph unicode="*" d="M145 839q0 25 20 52.5t62 45.5q14 6 44.5 13.5t78.5 18.5q61 12 121 38q-54 27 -129 42q-123 25 -152 47q-45 33 -45 80q0 13 6 26t16.5 23.5t24 16.5t28.5 6q17 0 34 -4.5t36 -16.5t41.5 -32.5t50.5 -52.5q57 -65 112 -98q-5 71 -28 137q-34 96 -34 135q0 52 24.5 79 t60.5 27q31 0 54 -26.5t23 -77.5q0 -20 -8 -53.5t-18.5 -72t-20 -77.5t-12.5 -71q28 17 52.5 38.5t46.5 46.5q34 40 58 63.5t42.5 35.5t34 15t33.5 3q33 0 55.5 -22.5t22.5 -53.5q0 -18 -5.5 -34t-25.5 -31t-59.5 -29.5t-107.5 -29.5q-77 -17 -128 -39q54 -28 127 -41 q62 -11 100.5 -25.5t59.5 -30.5t28.5 -34t7.5 -37q0 -30 -22.5 -52t-52.5 -22q-15 0 -31 4t-35 16t-43.5 34.5t-55.5 60.5q-20 25 -45.5 47.5t-56.5 44.5q1 -55 23 -124q36 -119 36 -161q0 -20 -6.5 -37.5t-17.5 -30t-24.5 -20t-26.5 -7.5q-15 0 -30.5 5t-28.5 16t-21 29.5 t-8 45.5q0 21 7.5 52.5t16.5 62.5t17.5 57t10.5 36q7 28 11 76q-29 -20 -55 -41.5t-48 -45.5q-32 -36 -55.5 -59.5t-42 -37t-34 -18.5t-32.5 -5t-32 6.5t-26 17t-17.5 23.5t-6.5 27z" />
<glyph unicode="+" horiz-adv-x="1155" d="M37 640v82h498v497h80v-497h500v-82h-500v-499h-80v499h-498z" />
<glyph unicode="," horiz-adv-x="512" d="M110 81q0 25 10 46.5t27.5 37.5t41 25.5t50.5 9.5q32 0 62.5 -15t54 -42.5t38 -66.5t14.5 -86q0 -51 -17.5 -100t-54 -91.5t-92.5 -78.5t-134 -61v44q51 17 91 44.5t68 61.5t42.5 73t14.5 78q0 15 -7 28t-16 13q-3 0 -12 -4.5t-20.5 -10t-25.5 -10t-28 -4.5q-49 0 -78 29 t-29 80z" />
<glyph unicode="-" horiz-adv-x="682" d="M83 384v151h517v-151h-517z" />
<glyph unicode="." horiz-adv-x="512" d="M145 83q0 24 9 44t24 35t35 23.5t43 8.5t43 -8.5t35 -23.5t24 -35.5t9 -43.5t-9 -43t-24 -35t-35 -24t-43 -9t-43 9t-35 24t-24 35t-9 43z" />
<glyph unicode="/" horiz-adv-x="569" d="M3 -28l491 1450h80l-491 -1450h-80z" />
<glyph unicode="0" d="M74 670q0 234 70 399q26 62 63 119t83.5 100.5t103 69.5t122.5 26q155 0 280 -159q155 -197 155 -534q0 -80 -7 -153t-23.5 -140t-43.5 -128.5t-68 -118.5q-26 -36 -61.5 -68t-75.5 -56t-83 -37.5t-83 -13.5q-86 0 -162.5 50t-135.5 140q-62 94 -98 222.5t-36 281.5z M270 645q0 -120 13 -226t40 -188q29 -89 75 -140.5t111 -51.5q27 0 56 11.5t56 37t50 65.5t38 97q23 87 34.5 207t11.5 278q0 232 -48 387q-31 99 -76 147.5t-116 48.5q-81 0 -139 -84.5t-80 -237.5q-13 -90 -19.5 -177t-6.5 -174z" />
<glyph unicode="1" d="M240 1223l330 161h33v-1145q0 -59 2 -92.5t7 -51.5t15 -26t25 -15q31 -16 122 -17v-37h-510v37q49 1 78.5 5t46.5 11t25 17t13 22q11 27 11 147v732q0 150 -10 190q-8 32 -26 47t-44 15q-38 0 -103 -31z" />
<glyph unicode="2" d="M44 0v37q177 162 301 292.5t196 233.5q144 204 144 373q0 64 -21.5 118.5t-58 93.5t-85.5 61t-103 22q-50 0 -95.5 -14.5t-84 -43.5t-68.5 -72t-49 -100h-37q13 93 46 164t83 120t115 74t143 25q82 0 153 -29t122.5 -78t81 -113.5t29.5 -135.5q0 -103 -48 -206 q-73 -161 -240 -343q-125 -137 -202.5 -218.5t-108.5 -109.5h354q67 0 113 3t78 14.5t55 33t45 59.5h37l-95 -261h-800z" />
<glyph unicode="3" d="M83 83q0 29 23.5 51t56.5 22h22t19.5 -4t31 -13t55.5 -28t58.5 -28.5t39 -14t30.5 -5t34 -0.5q51 0 97 21.5t80.5 58.5t55 85t20.5 101q0 33 -7.5 68t-20 67.5t-29 59.5t-35.5 44q-21 19 -52 38t-67 34t-75 24t-77 9h-32v30q78 10 158 57q81 48 116.5 113.5t35.5 144.5 q0 51 -17.5 93.5t-48 73t-71.5 47t-88 16.5q-156 0 -259 -166l-33 16q58 137 146.5 211.5t220.5 74.5q70 0 128 -22.5t100 -60.5t65 -88t23 -104q0 -149 -186 -306q126 -49 189.5 -139.5t63.5 -214.5q0 -103 -38.5 -190t-108.5 -150t-169 -98t-219 -35q-70 0 -115.5 9.5 t-72.5 25t-37.5 34.5t-10.5 38z" />
<glyph unicode="4" d="M32 358v128l629 898h110v-884h182v-142h-182v-358h-165v358h-574zM130 500h476v673z" />
<glyph unicode="5" d="M98 109q0 28 23 49.5t58 21.5q13 0 23.5 -1.5t22 -6.5t27 -14.5t39.5 -26.5q74 -52 152 -52q58 0 111 23.5t93.5 65t65 97t24.5 118.5q0 123 -79 229q-80 107 -218 165q-108 44 -297 52l260 527h486l-78 -170h-408l-89 -182q265 -39 420 -197q133 -136 133 -320 q0 -105 -44 -198q-43 -91 -109 -155t-147 -103q-114 -55 -236 -55q-62 0 -106.5 11.5t-72.5 30.5t-41 43t-13 48z" />
<glyph unicode="6" d="M88 532q0 183 72.5 346t208.5 291q114 106 232.5 160.5t258.5 54.5h58v-37q-64 -8 -114.5 -19t-95 -30.5t-85.5 -49.5t-86 -74q-41 -41 -74 -85t-60.5 -95t-49.5 -109.5t-40 -127.5q144 99 289 99q69 0 131 -29.5t109.5 -83t75 -127t27.5 -160.5q0 -91 -32 -177 t-89 -153.5t-136 -108.5t-174 -41q-68 0 -126 23t-105.5 63t-83.5 93.5t-61 115.5t-37.5 128.5t-12.5 132.5zM278 466q0 -42 7 -90.5t21.5 -97t36 -93t51 -78.5t67 -54.5t82.5 -20.5q43 0 83.5 21t71.5 61.5t50 99.5t19 134q0 83 -17 159.5t-50 134.5t-82 92.5t-112 34.5 q-21 0 -40 -3t-42 -12.5t-53.5 -26t-74.5 -43.5q-18 -135 -18 -218z" />
<glyph unicode="7" d="M76 1035l130 321h727v-38l-452 -1346h-112l405 1221h-373q-59 0 -102 -8.5t-77 -28.5t-61.5 -52.5t-55.5 -79.5z" />
<glyph unicode="8" d="M124 309q0 89 60 178q31 45 82.5 93.5t126.5 102.5q-162 133 -208 212t-46 166q0 65 27 123.5t75.5 103t117.5 70.5t153 26q81 0 148 -24.5t115 -65t74.5 -93.5t26.5 -109q0 -76 -54 -155q-54 -80 -225 -186q88 -69 146 -122t87 -92q76 -101 76 -215q0 -71 -28.5 -133.5 t-80.5 -110t-125 -75t-161 -27.5q-85 0 -156 27t-122.5 72.5t-80 106t-28.5 127.5zM277 314q0 -64 18.5 -116.5t51.5 -89.5t79 -57.5t101 -20.5q54 0 98 16.5t75 45t48 66.5t17 81q0 71 -38 129q-69 105 -287 277q-72 -60 -113 -133q-26 -45 -38 -94.5t-12 -103.5zM284 1129 q0 -52 26.5 -103.5t75.5 -99.5l164 -136q120 108 152 170q32 64 32 142q0 106 -58.5 165t-161.5 59q-51 0 -93 -16t-72.5 -43t-47.5 -63t-17 -75z" />
<glyph unicode="9" d="M81 898q0 91 30.5 178.5t86 155.5t133.5 110t173 42q96 0 175.5 -46.5t136.5 -124.5t88.5 -179t31.5 -210q0 -92 -19.5 -180.5t-56.5 -170.5t-90.5 -155.5t-120.5 -136.5q-52 -47 -107.5 -85t-115.5 -66t-125.5 -43t-135.5 -15h-57v37q76 3 139.5 20t118.5 49.5t104 81 t96 114.5q106 147 146 321q-158 -101 -284 -101q-71 0 -134.5 29t-110.5 82t-74.5 127.5t-27.5 165.5zM259 1001q0 -89 17 -165t49.5 -131.5t78.5 -87.5t104 -32q22 0 50.5 6t58.5 16.5t59 26t52 35.5q18 130 18 208q0 43 -7.5 92.5t-22 99t-36.5 94.5t-51 80t-66 55.5 t-81 20.5t-84 -20t-71 -59.5t-49.5 -99.5t-18.5 -139z" />
<glyph unicode=":" horiz-adv-x="569" d="M176 83q0 23 9 43.5t24 35.5t35 24t43 9t43.5 -9t35.5 -24.5t24 -36t9 -42.5q0 -23 -9 -43t-24 -35t-35.5 -24t-43.5 -9t-43 9t-35 24t-24 35t-9 43zM178 833q0 23 9 43t24 35t35 24t43 9t43 -9t35 -24t24 -35t9 -43t-9 -43t-24 -35t-35 -24t-43 -9t-43 9t-35 24t-24 35 t-9 43z" />
<glyph unicode=";" horiz-adv-x="569" d="M142 81q0 25 10 46.5t27.5 37.5t41 25.5t50.5 9.5q32 0 62.5 -15t54 -42.5t38 -66.5t14.5 -86q0 -51 -17.5 -100t-54 -91.5t-92.5 -78.5t-134 -61v44q51 17 91 44.5t68 61.5t42.5 73t14.5 78q0 15 -7 28t-16 13q-3 0 -12 -4.5t-20.5 -10t-25.5 -10t-28 -4.5q-49 0 -78 29 t-29 80zM171 835q0 23 9 43t24 35t35 23.5t43 8.5t43 -8.5t35 -23.5t24 -35t9 -43t-9 -43t-24 -35t-35 -24t-43 -9t-43 9t-35 24t-24 35t-9 43z" />
<glyph unicode="&#x3c;" horiz-adv-x="1155" d="M37 657v49l1076 466v-87l-926 -402l926 -406v-90z" />
<glyph unicode="=" horiz-adv-x="1155" d="M37 475v82h1079v-82h-1079zM37 801v82h1079v-82h-1079z" />
<glyph unicode="&#x3e;" horiz-adv-x="1155" d="M37 187v86l927 402l-927 406v91l1076 -470v-49z" />
<glyph unicode="?" horiz-adv-x="909" d="M92 1100q0 55 25 107t71.5 92t113.5 64t150 24q88 0 157.5 -25t118 -67.5t74 -100t25.5 -122.5q0 -74 -33 -150q-17 -38 -47 -83.5t-76 -97.5q-144 -162 -178 -233q-31 -67 -39 -188h-41q8 128 31 208q12 42 38 99t64 131q29 57 49 100t29 73q18 61 18 123 q0 63 -18.5 114.5t-50 87.5t-74 55.5t-90.5 19.5q-44 0 -78.5 -11.5t-58.5 -30t-37 -41.5t-13 -47q0 -17 9.5 -41.5t20.5 -49.5t20.5 -47.5t9.5 -34.5q0 -36 -23 -60.5t-56 -24.5q-21 0 -41 10.5t-35.5 31t-25 49.5t-9.5 66zM329 84q0 24 9 44.5t24 35.5t35 23.5t43 8.5 q48 0 80 -32t32 -80q0 -23 -9 -43t-24 -35t-35.5 -24t-43.5 -9t-43 9t-35 24t-24 35t-9 43z" />
<glyph unicode="@" horiz-adv-x="1886" d="M97 444q0 265 124 492q125 230 347 357q112 64 230.5 96.5t244.5 32.5q206 0 373 -86q168 -86 254 -250q87 -164 87 -349q0 -184 -82 -363q-81 -179 -207 -261q-125 -82 -263 -82q-76 0 -114.5 35.5t-38.5 101.5q0 55 18 147q-150 -180 -237 -232q-89 -53 -157 -53 q-35 0 -68 16.5t-58 47t-40 73.5t-15 96q0 146 94 325q95 180 251 293q116 83 206 83q67 0 111.5 -34.5t60.5 -103.5l33 110l157 22l-117 -399q-33 -112 -52.5 -183t-26.5 -101q-14 -62 -14 -96q0 -32 21.5 -54t53.5 -22q36 0 81.5 18t93 55.5t93.5 96.5t83 140 q73 162 73 342q0 170 -83 316t-233 222q-75 38 -158 58t-174 20q-231 0 -429 -123q-198 -121 -314 -352q-115 -229 -115 -478q0 -230 101 -418q100 -187 286 -284q184 -97 396 -97q263 0 475 141q214 142 329 412h58q-90 -275 -327 -444q-238 -170 -540 -170 q-237 0 -442 113t-317 319q-113 206 -113 454zM653 293q0 -32 9.5 -58t25.5 -44.5t37 -29t43 -10.5q58 0 121.5 43.5t134.5 135.5q70 91 102 184q56 160 56 259q0 33 -10 59.5t-27 45.5t-39.5 29t-48.5 10q-46 0 -94 -31.5t-93 -85.5t-85.5 -125t-72.5 -150 q-59 -145 -59 -232z" />
<glyph unicode="A" horiz-adv-x="1479" d="M16 0v37q84 15 110 39t53.5 72.5t59.5 122.5l477 1116h35l472 -1128q29 -70 53.5 -112.5t50.5 -66t56.5 -32.5t72.5 -11v-37h-535v37q40 2 67 9t42.5 18t22 25t6.5 31q1 22 -9.5 56.5t-30.5 82.5l-82 195h-525l-92 -214q-34 -78 -34 -118q0 -16 5.5 -29.5t22.5 -25 t48 -19t81 -11.5v-37h-427zM443 528h466l-230 548z" />
<glyph unicode="B" horiz-adv-x="1366" d="M34 0v37h51q84 0 122 54q23 35 23 149v876q0 125 -29 159q-39 44 -116 44h-51v37h586q164 0 263 -24q75 -18 132.5 -51t96.5 -77t59 -97.5t20 -112.5q0 -102 -62 -182.5t-183 -119.5q83 -18 141.5 -49t95.5 -73t54 -92.5t17 -106.5q0 -50 -16.5 -99.5t-47.5 -93 t-75.5 -79t-100.5 -57.5q-111 -42 -340 -42h-640zM422 98q115 -27 229 -27q91 0 160.5 22t116.5 60.5t70.5 90t23.5 110.5q0 65 -25.5 121.5t-78 98t-132 65.5t-187.5 24q-63 0 -106.5 -2t-70.5 -7v-556zM422 746q76 -14 189 -14q147 0 219 31q37 16 65.5 41t47.5 56t29 67 t10 75q0 58 -24.5 110.5t-72.5 91.5t-119 62t-164 23q-102 0 -180 -22v-521z" />
<glyph unicode="C" horiz-adv-x="1366" d="M74 657q0 121 33 234.5t102 209.5q48 68 109.5 121.5t133 90t150.5 55.5t162 19q147 0 290 -72q42 -22 59 -22h1q32 0 53.5 26.5t30.5 67.5h35l31 -461h-31q-31 103 -75.5 177t-101.5 121t-126 69t-150 22q-136 0 -241 -66.5t-167 -204.5q-34 -76 -52 -172.5t-18 -216.5 q0 -183 59 -319q30 -69 75.5 -121t103.5 -87t126.5 -53t142.5 -18q84 0 145 17t111 52t96.5 88t102.5 124l31 -20q-51 -90 -110 -156t-128 -109t-149.5 -63.5t-173.5 -20.5q-338 0 -522 250q-138 186 -138 438z" />
<glyph unicode="D" horiz-adv-x="1479" d="M35 0v37h51q85 0 122 55q22 32 22 148v876q0 128 -28 159q-39 44 -116 44h-51v37h552q304 0 462 -69q159 -69 255 -230q97 -160 97 -372q0 -150 -48.5 -276t-144 -216.5t-238 -141.5t-329.5 -51h-606zM422 98q125 -28 213 -28q115 0 213.5 42.5t170.5 121t113 190.5 t41 251q0 140 -40.5 252t-113 190.5t-173 120.5t-219.5 42q-45 0 -96 -7.5t-109 -21.5v-1153z" />
<glyph unicode="E" horiz-adv-x="1251" d="M42 0v37h48q19 0 40 4t39.5 13t33.5 22.5t21 31.5q12 31 12 131v881q0 128 -26 159q-36 40 -120 40h-48v37h1045v-297h-24q-11 54 -22 89t-25 58t-32 36.5t-43 24.5q-41 15 -141 15h-372v-536h298q65 0 105.5 11.5t63.5 36t32 61.5t12 88h37v-472h-37q-7 50 -14 81.5 t-14 45.5q-9 18 -23 31.5t-36 23.5t-53 15t-73 5h-298v-447q0 -89 8 -110q4 -9 10 -17t17.5 -13.5t30 -8.5t46.5 -3h230q59 0 98.5 3.5t69 12t52 24t47.5 39.5q31 30 63 77t64 110h40l-117 -340h-1045z" />
<glyph unicode="F" horiz-adv-x="1139" d="M33 0v37h48q85 0 122 49q24 31 24 154v876q0 48 -2 78t-7.5 49.5t-16 30.5t-28.5 21q-44 24 -92 24h-48v37h1009v-298h-22q-20 73 -44.5 117t-60 68t-83.5 31.5t-114 7.5h-299v-533h247q43 0 73.5 8t51.5 29t33 57t19 92h37v-459h-37q-1 51 -10 87t-29 59t-53.5 33.5 t-84.5 10.5h-247v-426q0 -48 2 -78t7.5 -49t16.5 -30.5t29 -21.5q43 -24 92 -24h49v-37h-582z" />
<glyph unicode="G" horiz-adv-x="1479" d="M72 657q0 69 14 138.5t40 135.5t64 126.5t85 111.5q100 112 228.5 165t286.5 53q47 0 82 -3.5t68 -11t69.5 -20t86.5 -30.5q55 -21 75 -21q19 0 32.5 17.5t16.5 68.5h37l35 -428h-35q-52 159 -137 241q-122 117 -311 117q-259 0 -394 -205q-113 -173 -113 -412 q0 -194 75 -354q33 -71 79 -128t103 -97t123.5 -62t140.5 -22q75 0 144.5 19t135.5 56v392q0 52 -4 83.5t-11.5 50.5t-20 29t-28.5 18q-32 17 -114 17v38h525v-38h-25q-34 0 -58 -7.5t-39.5 -28.5t-22.5 -60t-7 -102v-415q-60 -32 -116 -54.5t-113.5 -37t-118 -21.5 t-128.5 -7q-393 0 -597 252q-153 189 -153 436z" />
<glyph unicode="H" horiz-adv-x="1479" d="M35 0v37h48q85 0 122 49q24 31 24 154v875q0 48 -2 78t-7.5 49.5t-16 31t-28.5 21.5q-44 24 -92 24h-48v37h581v-37h-49q-20 0 -40.5 -4t-39 -13t-33 -22.5t-21.5 -32.5q-12 -32 -12 -132v-388h630v388q0 48 -2 78t-7.5 49.5t-16.5 31t-29 21.5q-44 24 -91 24h-48v37h581 l-1 -37h-48q-19 0 -40 -4t-40 -13t-33.5 -22.5t-21.5 -32.5q-11 -33 -11 -132v-875q0 -48 2 -78t7.5 -49.5t16 -30.5t28.5 -21q43 -24 92 -24h48v-37h-580v37h48q82 0 121 49q25 31 25 154v413h-630v-413q0 -48 2 -78t7.5 -49t16.5 -30.5t29 -21.5q43 -24 91 -24h49v-37 h-581z" />
<glyph unicode="I" horiz-adv-x="682" d="M51 0v37h48q85 0 122 49q24 31 24 154v876q0 48 -2 78t-7.5 49.5t-16 30.5t-28.5 21q-44 24 -92 24h-48v37h581v-37h-49q-84 0 -121 -49q-25 -31 -25 -154v-876q0 -48 2 -78t7.5 -49t16.5 -30.5t29 -21.5q43 -24 91 -24h49v-37h-581z" />
<glyph unicode="J" horiz-adv-x="797" d="M42 122q0 28 9 48t23.5 33t33 18.5t36.5 5.5q15 0 28.5 -3t28 -16.5t30 -40t35.5 -73.5q22 -54 59 -54q13 0 26.5 7.5t24 25.5t17 46.5t6.5 70.5v926q0 48 -2 78t-7.5 49t-16.5 30.5t-29 21.5q-44 24 -91 24h-49v37h581v-37h-49q-84 0 -121 -49q-24 -32 -24 -154v-663 q0 -155 -34 -248q-17 -47 -46 -89.5t-68.5 -75t-90 -52t-108.5 -19.5q-47 0 -84.5 13t-63.5 34t-40 48.5t-14 57.5z" />
<glyph unicode="K" horiz-adv-x="1479" d="M34 0v37h48q85 0 122 49q24 31 24 154v876q0 46 -1.5 76t-7.5 49.5t-16.5 31.5t-28.5 22q-44 24 -92 24h-48v37h578v-37h-46q-19 0 -39.5 -4t-39 -12.5t-33.5 -22t-22 -32.5q-12 -32 -12 -132v-415q39 32 89 78t102.5 97t104 102t93.5 94.5t70.5 75.5t36.5 43 q27 40 27 70q0 23 -20.5 40.5t-71.5 17.5h-31v37h498v-37q-44 -2 -80 -12q-18 -6 -40 -16t-48.5 -27t-58 -41.5t-69.5 -59.5l-410 -411l500 -497q123 -123 210 -168q88 -44 174 -50v-37h-645v37q58 0 83.5 19.5t25.5 43.5q0 12 -1 21.5t-7.5 20.5t-21 28t-42.5 44l-468 463 v-437q0 -48 2 -78t7.5 -49t16.5 -30.5t29 -21.5q43 -24 91 -24h46v-37h-578z" />
<glyph unicode="L" horiz-adv-x="1251" d="M41 0v37h51q85 0 123 56q21 31 21 148v875q0 128 -28 159q-39 44 -116 44h-51v37h614v-37q-55 0 -91.5 -5t-60 -15t-37 -23.5t-22.5 -29.5q-16 -31 -16 -153v-852q0 -35 2.5 -60t8.5 -41.5t16 -27t26 -16.5q24 -10 156 -10h99q155 0 219 23q32 11 60 30t54.5 50.5 t52 76.5t52.5 109l33 -7l-116 -368h-1050z" />
<glyph unicode="M" horiz-adv-x="1821" d="M34 0v37h48q86 0 122 52q22 31 22 146v886q0 88 -20 130q-7 15 -19 27.5t-32.5 21.5t-49.5 14t-71 5v37h384l492 -1061l484 1061h384v-37h-47q-87 0 -123 -52q-22 -31 -22 -146v-886q0 -125 28 -156q37 -42 117 -42h47v-37h-576v37h48q86 0 122 52q22 31 22 146v906 l-523 -1141h-33l-524 1141v-906q0 -125 27 -156q37 -42 117 -42h48v-37h-472z" />
<glyph unicode="N" horiz-adv-x="1479" d="M-27 1319v37h368l829 -1017v782q0 125 -28 156q-38 42 -117 42h-47v37h472v-37h-48q-86 0 -122 -52q-22 -31 -22 -146v-1143h-36l-894 1092v-835q0 -125 27 -156q37 -42 117 -42h48v-37h-472v37h47q87 0 123 52q22 31 22 146v943q-30 35 -50 56t-38 34.5t-39 22t-52 19.5 q-29 9 -88 9z" />
<glyph unicode="O" horiz-adv-x="1479" d="M72 683q0 323 220 527q191 177 457 177q263 0 457 -201q194 -200 194 -500q0 -309 -195 -513t-472 -204q-281 0 -471 199t-190 515zM301 687q0 -143 28 -262t82.5 -204.5t134.5 -133t185 -47.5q94 0 174.5 36t139.5 111.5t92.5 192.5t33.5 279q0 155 -27.5 276.5 t-83 205.5t-138 128.5t-192.5 44.5q-103 0 -183 -44t-134.5 -125.5t-83 -197.5t-28.5 -260z" />
<glyph unicode="P" horiz-adv-x="1139" d="M34 0v37h51q42 0 73.5 14t49.5 42q20 32 20 147v876q0 127 -27 159q-39 44 -116 44h-51v37h497q181 0 287 -38q52 -19 97 -51t79 -75.5t53.5 -96.5t19.5 -114q0 -83 -28 -151.5t-81.5 -118t-131.5 -77t-178 -27.5t-228 28v-395q0 -128 28 -159q38 -44 115 -44h52v-37 h-581zM420 692q54 -10 94.5 -15t69.5 -5q52 0 98.5 21.5t81 60t55 91.5t20.5 116q0 74 -22 132.5t-61 99t-91.5 61.5t-113.5 21q-26 0 -58.5 -4.5t-72.5 -14.5v-564z" />
<glyph unicode="Q" horiz-adv-x="1479" d="M72 681q0 303 197 505q196 201 477 201q267 0 460 -202q97 -102 146 -227.5t49 -280.5q0 -250 -139 -437q-138 -188 -360 -255q103 -178 220 -259q119 -83 270 -95v-32q-136 4 -295 56q-155 49 -298 140q-138 88 -242 190q-144 58 -228 123q-124 97 -190.5 238t-66.5 335 zM301 681q0 -142 28 -260t82.5 -203.5t135.5 -133t187 -47.5q103 0 184 41.5t137.5 120.5t86.5 193.5t30 259.5q0 162 -31.5 285t-89.5 206t-138.5 125t-178.5 42q-103 0 -183.5 -42t-136 -122.5t-84.5 -197.5t-29 -267z" />
<glyph unicode="R" horiz-adv-x="1366" d="M35 0v37h51q85 0 123 56q21 31 21 147v876q0 128 -28 159q-39 44 -116 44h-51v37h494q214 0 318 -32q51 -15 95.5 -45t78 -71t53 -92t19.5 -109q0 -63 -20 -117.5t-61.5 -99.5t-104.5 -78t-148 -52l280 -389q97 -135 165 -178q70 -44 180 -56v-37h-362l-459 634 q-26 -1 -46.5 -1.5t-36.5 -0.5q-13 0 -28 0.5t-31 1.5v-394q0 -128 28 -159q38 -44 114 -44h53v-37h-581zM421 697q19 0 33 -0.5t23 -0.5q97 0 170.5 22.5t122.5 62.5t73.5 94.5t24.5 118.5q0 63 -21 115.5t-59.5 90.5t-92 59t-117.5 21q-29 0 -68 -4.5t-89 -14.5v-564z" />
<glyph unicode="S" horiz-adv-x="1139" d="M128 1030q0 72 30 137t83 114t125.5 77.5t158.5 28.5q106 0 229 -53q54 -25 79 -25q26 0 42.5 15.5t26.5 62.5h37v-469h-37q-18 135 -65 215q-23 40 -57.5 72t-75 54.5t-86 35t-91.5 12.5q-51 0 -95 -17.5t-76.5 -46.5t-50.5 -66.5t-18 -77.5q0 -56 26 -97.5t71.5 -76.5 t107 -68t133.5 -71q81 -43 154 -84t128.5 -90.5t88.5 -113t33 -152.5q0 -76 -31.5 -144.5t-88 -120t-135 -82t-172.5 -30.5q-35 0 -60 1t-48 4.5t-47.5 11t-58.5 20.5q-24 9 -49 16.5t-46 12.5t-35.5 8t-18.5 3q-25 0 -39.5 -15t-21.5 -62h-37v465h37q13 -73 30.5 -127.5 t39.5 -91.5q22 -36 57 -67t78.5 -53.5t94 -35t103.5 -12.5q63 0 113 18t85 48.5t53.5 71t18.5 84.5q0 65 -27 109.5t-72.5 79.5t-106 67t-127.5 72q-76 45 -146.5 85.5t-124.5 89t-86.5 110.5t-32.5 148z" />
<glyph unicode="T" horiz-adv-x="1251" d="M62 1038v318h1123v-318h-23q-8 64 -26.5 108.5t-48.5 72t-73 40t-100 12.5h-191v-1036q0 -125 27 -156q37 -42 117 -42h47v-37h-575v37h48q86 0 122 52q22 31 22 146v1036h-163q-62 0 -108 -9t-78 -34t-52 -71t-30 -119h-38z" />
<glyph unicode="U" horiz-adv-x="1479" d="M11 1319v37h586v-37h-52q-48 0 -77 -13.5t-44 -39.5t-19.5 -64t-4.5 -86v-591q0 -50 3 -99t12 -94.5t24.5 -86t40.5 -74.5q39 -54 104.5 -85.5t167.5 -31.5q66 0 126.5 15.5t111 43t87.5 65t56 82.5q39 91 39 307v549q0 128 -28 159q-39 44 -116 44h-51v37h480v-37h-51 q-80 0 -123 -67q-21 -32 -21 -144v-550q0 -203 -41 -317q-26 -73 -74 -124.5t-111 -84.5t-138.5 -48.5t-157.5 -15.5q-221 0 -337 77q-73 48 -112.5 101.5t-58 118t-21.5 143t-3 178.5v530q0 63 -8.5 103t-26.5 62t-45.5 30t-65.5 8h-51z" />
<glyph unicode="V" horiz-adv-x="1479" d="M18 1319v37h554v-37q-48 -5 -77.5 -13t-45.5 -19.5t-21.5 -26t-5.5 -32.5q0 -51 46 -156l345 -795l320 785q47 117 47 161q0 31 -32.5 58.5t-111.5 37.5v37h418v-37q-43 -8 -73.5 -23t-53.5 -39t-40.5 -57.5t-35.5 -76.5l-473 -1154h-37l-508 1169q-40 92 -55 110 q-25 31 -61 48.5t-99 22.5z" />
<glyph unicode="W" horiz-adv-x="1933" d="M27 1319v37h502v-37h-24q-54 0 -81.5 -24t-27.5 -58q0 -17 10.5 -57.5t33.5 -103.5l267 -761l225 647l-72 205q-16 37 -32.5 65t-38 47.5t-50 29.5t-68.5 10v37h528v-37h-36q-57 0 -82.5 -23.5t-25.5 -65.5q0 -51 45 -178l260 -737l258 747q44 126 44 172q0 47 -42 66 t-108 19v37h405v-37q-27 0 -48 -4.5t-38.5 -15t-32.5 -27.5t-30 -43q-19 -34 -63 -167l-378 -1093h-40l-309 867l-307 -867h-36l-403 1126q-46 128 -57 149q-20 38 -54 56.5t-94 18.5z" />
<glyph unicode="X" horiz-adv-x="1479" d="M15 0v37q63 5 111.5 30t94.5 61q57 45 128 135l320 404l-267 391q-110 159 -185 208q-77 50 -175 53v37h627v-37q-40 -2 -67 -9t-43 -17.5t-22.5 -23.5t-6.5 -27q0 -38 48 -108l208 -311l241 305q22 28 34.5 45t18.5 29t7 21t1 20q0 23 -15 41t-35 25q-11 4 -35 6.5 t-60 3.5v37h481v-37q-34 -2 -61 -8.5t-49.5 -16.5t-42.5 -24t-39 -31q-43 -38 -127 -144l-269 -344l291 -434q61 -91 105.5 -147.5t73.5 -80.5q58 -47 149 -52v-37h-582v37q69 2 101.5 21t32.5 56q0 13 0.5 20.5t-5 19.5t-19 33t-40.5 61l-230 348l-284 -364 q-24 -30 -36.5 -48t-18.5 -30t-7 -20.5t-1 -19.5q0 -16 6 -29.5t21 -23.5t40 -16.5t63 -7.5v-37h-481z" />
<glyph unicode="Y" horiz-adv-x="1479" d="M19 1319v37h580v-37h-30q-22 0 -44.5 -5t-40.5 -16t-29.5 -27.5t-11.5 -39.5q0 -36 61 -130l283 -437l266 418q60 94 60 140q-2 21 -9 39t-22 31t-41 20t-65 7v37h473v-37h-26q-12 0 -32.5 -6t-43.5 -17t-47 -28t-44 -38q-21 -22 -45.5 -57t-55.5 -83l-327 -515v-340 q0 -125 28 -156q37 -42 120 -42h44v-37h-576v37h48q86 0 122 52q22 31 22 146v321l-372 568q-33 51 -55.5 81.5t-34.5 43.5q-6 6 -20 17.5t-35 23.5t-46.5 20.5t-53.5 8.5z" />
<glyph unicode="Z" horiz-adv-x="1251" d="M26 0v37l870 1238h-434q-54 0 -91.5 -6t-64.5 -17.5t-44.5 -28.5t-30.5 -40q-25 -42 -46 -166h-38l28 339h1003l-891 -1274h556q128 0 196 56q69 56 122 227l33 -6l-64 -359h-1104z" />
<glyph unicode="[" horiz-adv-x="682" d="M168 -406v1793h440v-79h-290v-1636h290v-78h-440z" />
<glyph unicode="\" horiz-adv-x="569" d="M3 1422h80l490 -1450h-80z" />
<glyph unicode="]" horiz-adv-x="682" d="M75 -328h290v1636h-290v79h440v-1794h-440v79z" />
<glyph unicode="^" horiz-adv-x="961" d="M37 667l431 717h30l425 -717h-92l-350 586l-350 -586h-94z" />
<glyph unicode="_" d="M-17 -358h1059v-84h-1059v84z" />
<glyph unicode="`" horiz-adv-x="682" d="M118 1390h223l106 -345h-35z" />
<glyph unicode="a" horiz-adv-x="909" d="M73 217q0 39 10.5 72t31.5 62.5t53.5 56.5t76.5 53q103 61 338 146v36q0 69 -11.5 115t-33 73.5t-53.5 39t-72 11.5q-32 0 -57.5 -9.5t-43.5 -25t-27.5 -36t-9.5 -41.5l2 -58q0 -46 -23.5 -71t-61.5 -25q-37 0 -60.5 26t-23.5 71q0 42 22.5 83t65 74t105 53t142.5 20 q106 0 180 -31t107 -107q18 -44 18 -176v-311q0 -66 1.5 -106t3.5 -55q5 -29 16.5 -39t26.5 -10q10 0 19 3t21 12t28 24.5t41 40.5v-56q-113 -150 -214 -150q-48 0 -78 34t-30 116q-141 -110 -177 -126q-53 -25 -115 -25q-47 0 -87 17t-69 48t-45.5 74.5t-16.5 96.5z M241 264q0 -36 11.5 -66.5t31 -53t45.5 -35t54 -12.5q76 0 200 100v349q-76 -30 -124.5 -51t-70.5 -34q-79 -45 -113 -92.5t-34 -104.5z" />
<glyph unicode="b" d="M-5 1310l275 112h45v-664q134 185 287 185q69 0 132.5 -31t112 -89.5t77.5 -141.5t29 -188q0 -245 -162 -393q-140 -128 -310 -128q-158 0 -331 116v949q0 154 -8 192q-7 36 -23 49t-40 13q-29 0 -70 -16zM315 146q103 -101 217 -101q45 0 89 25.5t79.5 75t57.5 122.5 t22 168q0 87 -21.5 155t-57.5 114.5t-82.5 71t-95.5 24.5q-24 0 -47 -4t-47 -15.5t-52 -32.5t-62 -55v-548z" />
<glyph unicode="c" horiz-adv-x="909" d="M70 457q0 108 35 197.5t94.5 153.5t139 99.5t168.5 35.5q67 0 123.5 -20t97.5 -52t64.5 -71t23.5 -77t-24 -61.5t-69 -23.5q-23 0 -42.5 5t-34 18t-23.5 36t-12 59q-5 59 -39.5 89.5t-97.5 30.5q-59 0 -104 -26.5t-76 -72t-46.5 -106t-15.5 -128.5q0 -80 20.5 -154.5 t59 -132.5t93.5 -93t125 -35q42 0 80 10.5t73 36.5t67.5 71.5t62.5 115.5l29 -14q-19 -91 -57 -161t-89 -118t-112 -72.5t-126 -24.5q-77 0 -147 34t-123.5 97t-85.5 152.5t-32 201.5z" />
<glyph unicode="d" d="M68 420q0 197 124 360q125 164 319 164q120 0 200 -77v300q0 18 1.5 39.5t-3.5 40.5t-20 31.5t-49 12.5q-27 0 -69 -16l-13 35l273 112h45v-1059q0 -163 7 -197q8 -35 24.5 -49t38.5 -14q26 0 72 17l11 -35l-272 -113h-46v131q-67 -70 -130.5 -100.5t-138.5 -30.5 t-142.5 33.5t-119 93t-82 141.5t-30.5 180zM251 499q0 -101 24.5 -179t64.5 -131t91 -80t104 -27q91 0 176 91v472q-5 57 -25.5 101t-50 74.5t-65 46t-71.5 15.5q-53 0 -98 -27.5t-78.5 -78t-52.5 -121t-19 -156.5z" />
<glyph unicode="e" horiz-adv-x="909" d="M76 446q0 119 32.5 211.5t89.5 156.5t134.5 97t166.5 33q76 0 140.5 -26.5t111.5 -75.5t73.5 -117.5t26.5 -153.5h-633q0 -102 27 -183t73 -137.5t106.5 -86t127.5 -29.5q90 0 156.5 49.5t111.5 169.5l31 -20q-11 -67 -42 -132t-79.5 -116t-113 -82.5t-140.5 -31.5 q-82 0 -154.5 33.5t-127 95t-86.5 149t-32 196.5zM218 629h424q-4 88 -21 124q-25 56 -74.5 88t-103.5 32q-41 0 -79 -16.5t-69 -48t-51.5 -76.5t-25.5 -103z" />
<glyph unicode="f" horiz-adv-x="682" d="M79 844v72h178v60q0 136 44 232q22 47 56.5 86t78.5 67t95.5 43.5t107.5 15.5q39 0 83 -13t81.5 -35.5t62 -53.5t24.5 -67q0 -15 -7 -29.5t-18.5 -26.5t-26.5 -19.5t-30 -7.5q-12 0 -23.5 3t-24.5 12.5t-28.5 26.5t-34.5 45t-35.5 46t-33 28.5t-33 14.5t-35.5 4 q-46 0 -78 -24.5t-46 -76.5q-14 -53 -14 -265v-66h236v-72h-236v-602q0 -128 28 -162q38 -44 99 -44h83v-36h-547v36h41q40 0 72.5 19.5t45.5 54.5q13 33 13 132v602h-178z" />
<glyph unicode="g" d="M61 -251q0 15 4.5 30.5t14 33t25 38.5t37.5 49q7 9 102 108q-52 31 -73.5 55.5t-21.5 55.5q0 18 5 37.5t22 44.5t48.5 57t84.5 76q-85 42 -129.5 114.5t-44.5 162.5q0 68 27 128.5t76 105.5t115.5 71.5t146.5 26.5q132 0 227 -64h194q22 0 33.5 -0.5t17 -2t6.5 -3.5t3 -5 q6 -9 6 -32q0 -15 -0.5 -24.5t-6 -14.5t-19 -6.5t-40.5 -1.5h-119q56 -73 56 -184q0 -63 -25.5 -119.5t-72.5 -98.5t-114 -67t-149 -25q-67 0 -139 20q-45 -38 -60 -66.5t-15 -48.5q0 -15 6 -26t28.5 -18.5t66.5 -12t120 -6.5q103 -3 169.5 -6t97.5 -8q46 -6 84 -24 t64.5 -45t41 -62t14.5 -76q0 -113 -106 -212q-157 -146 -407 -146q-69 0 -140 15t-129 40.5t-95 60.5t-37 75zM204 -176q0 -33 27.5 -60t74.5 -46t110.5 -29.5t134.5 -10.5q90 0 156.5 18t109.5 46.5t64 64t21 70.5q0 26 -11 44t-39.5 29.5t-78.5 18t-128 8.5q-113 3 -199 9 t-147 14q-95 -103 -95 -176zM309 655q0 -68 13.5 -125t39.5 -98.5t63 -64.5t84 -23q38 0 70 14t55 43t36 73.5t13 105.5q0 67 -13.5 124.5t-39 100t-62.5 66.5t-85 24q-36 0 -68 -14.5t-55.5 -44t-37 -75t-13.5 -106.5z" />
<glyph unicode="h" d="M13 1310l274 112h46v-670q32 31 63.5 65t67.5 62t78.5 46t96.5 18q73 0 119 -31.5t72 -84t35.5 -119.5t9.5 -138v-363q0 -46 1.5 -77.5t14 -51t40 -29.5t80.5 -13v-36h-450v36h21q45 0 70 8t38 27.5t16 52.5t3 83v363q0 43 -1.5 87.5t-14.5 81t-43.5 60t-87.5 23.5 q-25 0 -50 -5.5t-52.5 -20t-58.5 -40t-68 -65.5v-484q0 -49 2 -76.5t7.5 -42.5t15 -22t24.5 -15q14 -8 39 -11.5t60 -3.5v-36h-454v36q38 0 64.5 4.5t43.5 21.5t24.5 51.5t7.5 93.5v829q0 155 -8 193q-7 36 -22.5 49t-41.5 13q-23 0 -68 -16z" />
<glyph unicode="i" horiz-adv-x="569" d="M60 831l276 112h44v-736q0 -44 3 -71.5t9 -44.5t15.5 -25.5t21.5 -15.5q26 -14 90 -14v-36h-445v36q34 0 55.5 3t35 10t21 17.5t14.5 25.5q14 31 14 115v353q0 87 -3 137t-10.5 75t-22 31.5t-36.5 6.5q-28 0 -68 -15zM195 1321q0 21 8 39.5t21.5 32t32.5 21.5t40 8 t39.5 -8t32 -21.5t21.5 -32t8 -39.5t-8 -39.5t-21.5 -32.5t-32 -22t-39.5 -8t-39.5 8t-32.5 22t-22 32.5t-8 39.5z" />
<glyph unicode="j" horiz-adv-x="569" d="M-157 -341q0 18 6.5 33.5t18 27t26 18t31.5 6.5q12 0 21.5 -0.5t21.5 -6t29.5 -18.5t45.5 -38q49 -44 82 -44q23 0 46.5 18t34.5 63q5 22 8 68.5t3 119.5v652q0 89 -3 139.5t-11 75.5t-22 31t-36 6q-28 0 -68 -15l-14 36l276 112h43v-922q0 -119 -26.5 -206t-74.5 -144 t-114 -85t-145 -28q-47 0 -80.5 9.5t-55.5 24t-32.5 32.5t-10.5 35zM194 1320q0 21 8 40t22 33t32.5 22t39.5 8t40 -8t33 -22t22 -33t8 -40t-8 -39.5t-22 -32.5t-33 -22t-40 -8t-39.5 8t-32.5 22t-22 32.5t-8 39.5z" />
<glyph unicode="k" d="M17 0v36q47 0 76.5 6t46.5 23.5t23 50t6 85.5v834q0 80 -1.5 128.5t-5.5 65.5q-8 36 -23.5 49.5t-41.5 13.5q-20 0 -63 -17l-17 35l272 112h46v-909l233 210q32 29 51 47t28.5 29.5t12 18.5t2.5 15q0 20 -16.5 34.5t-54.5 16.5v32h398v-32q-42 -1 -74.5 -6.5t-62 -17.5 t-58 -32.5t-61.5 -50.5l-235 -217l235 -297q97 -123 132 -156q22 -22 38.5 -35.5t34 -21.5t40 -11t58.5 -3v-36h-445v36q38 1 51.5 11.5t13.5 29.5q0 24 -40 74l-281 356v-301q0 -46 3 -74t9 -44.5t15 -24.5t21 -14q21 -11 100 -13v-36h-466z" />
<glyph unicode="l" horiz-adv-x="569" d="M61 1310l273 112h45v-1215q0 -44 3 -71.5t9 -44t15.5 -25.5t23.5 -16q24 -14 97 -14v-36h-449v36q45 0 71.5 7t41 26t18.5 52t4 86v832q0 78 -1.5 125.5t-5.5 64.5q-8 36 -23 49t-39 13q-27 0 -66 -16z" />
<glyph unicode="m" horiz-adv-x="1593" d="M17 831l276 112h43v-195q100 100 118 115q45 38 97 59t103 21q87 0 148.5 -49.5t82.5 -145.5q103 119 174 157t146 38q50 0 94 -17t76.5 -56.5t51.5 -105.5t19 -163v-394q0 -45 2.5 -77.5t15.5 -53.5t41 -30.5t79 -9.5v-36h-452v36h19q50 0 81 16t44 58q4 15 4 97v394 q0 66 -10 108.5t-29.5 68t-47.5 35.5t-65 10q-27 0 -52.5 -6t-53.5 -21t-60.5 -39.5t-71.5 -61.5l2 -488q0 -49 2 -76.5t7.5 -42t15.5 -21.5t25 -16q14 -8 39 -11.5t60 -3.5v-36h-463v36q54 0 84.5 7.5t44.5 27t17 52.5t3 84v394q0 64 -11.5 107t-32.5 69t-49.5 37.5 t-62.5 11.5q-33 0 -68 -12.5t-66.5 -31t-57.5 -41t-43 -43.5v-491q0 -47 3 -74.5t9 -44t15.5 -24.5t21.5 -15q25 -13 100 -13v-36h-453v36q46 0 73.5 7t42 25.5t19 52t4.5 86.5v350q0 89 -3 139.5t-11 76t-22 31.5t-36 6q-28 0 -67 -15z" />
<glyph unicode="n" d="M12 831l276 112h43v-194q161 194 307 194q51 0 94 -17t75 -57t50 -106t18 -165v-391q0 -59 6.5 -93t22.5 -51.5t43 -22t68 -4.5v-36h-453v36h19q45 0 70.5 8t38.5 27.5t16.5 52.5t3.5 83v375q0 125 -32.5 181.5t-109.5 56.5q-119 0 -237 -130v-483q0 -91 11 -115 q7 -15 15.5 -26t23 -17.5t38 -9.5t61.5 -3v-36h-453v36h20q36 0 59 8t36.5 28t18.5 52.5t5 82.5v340q0 163 -8 201q-7 36 -22.5 49t-41.5 13q-28 0 -67 -15z" />
<glyph unicode="o" d="M69 449q0 93 32 182t90.5 158.5t140 111.5t180.5 42q97 0 178 -38t139.5 -102t91 -149t32.5 -179q0 -99 -33.5 -189.5t-93.5 -160.5t-143 -111.5t-182 -41.5q-97 0 -176.5 40t-136.5 106.5t-88 152.5t-31 178zM255 533q0 -97 20.5 -186t58 -156.5t91 -107.5t119.5 -40 q48 0 88.5 18.5t70.5 60t47 109.5t17 167t-19 186t-55.5 152.5t-90 103.5t-121.5 38q-44 0 -84.5 -18.5t-72 -60t-50.5 -107t-19 -159.5z" />
<glyph unicode="p" d="M-7 -401h25q40 0 74 11t49 46q11 25 11 124v866q0 53 -3.5 84.5t-12.5 48.5t-25 22.5t-40 5.5q-22 0 -61 -14l-12 32l282 114h38v-214q36 60 71.5 102t71.5 67.5t73.5 37t76.5 11.5q78 0 141.5 -36t108 -97.5t69 -143.5t24.5 -175q0 -104 -29.5 -198.5t-84 -165.5 t-131.5 -113t-173 -42q-33 0 -61 3t-53.5 12t-50.5 24.5t-53 41.5v-279q0 -49 2.5 -77.5t8.5 -44t16 -23.5t24 -15q28 -15 104 -15v-37h-480v37zM318 324q0 -112 9 -146q7 -29 24.5 -55.5t44.5 -46.5t61.5 -32t75.5 -12q58 0 103.5 27.5t76.5 76t47 115.5t16 146 q0 86 -17.5 159.5t-49.5 127t-77 84t-100 30.5q-25 0 -48 -8t-48 -24.5t-53.5 -41.5t-64.5 -58v-342z" />
<glyph unicode="q" d="M68 417q0 116 37.5 213t101.5 166.5t150 108t182 38.5q115 0 191 -64q29 14 57 30t54 34h34v-1178q0 -45 3 -72t9 -42.5t15 -23t22 -14.5q26 -14 100 -14v-37h-462v37h19q34 0 58.5 4.5t40.5 21t23 50t7 90.5v394q-91 -107 -159 -148q-68 -39 -141 -39q-66 0 -127.5 31.5 t-109 89.5t-76.5 140t-29 184zM236 490q0 -93 22 -164t60 -118t88.5 -71t107.5 -24q60 0 105.5 25.5t90.5 83.5v430q0 48 -11.5 88.5t-36 70t-63 46t-91.5 16.5q-55 0 -104.5 -23.5t-86.5 -71t-59 -119.5t-22 -169z" />
<glyph unicode="r" horiz-adv-x="682" d="M13 831l277 112h42v-206q116 206 236 206q27 0 50 -9t40.5 -24.5t27 -35.5t9.5 -42q0 -39 -26 -66t-62 -27q-17 0 -38 11t-41.5 23.5t-37.5 23.5t-26 11q-13 0 -29 -11.5t-33 -32t-35 -49t-35 -62.5v-439q0 -41 5 -74t21.5 -56t48.5 -35.5t85 -12.5v-36h-469v36 q44 0 72 6t44 24t22 51.5t6 88.5v355q0 162 -7 190q-13 59 -67 59q-31 0 -70 -15z" />
<glyph unicode="s" horiz-adv-x="797" d="M100 678q0 56 20.5 104.5t57.5 84t88 56t112 20.5q19 0 49 -6t60.5 -13t55.5 -13t34 -6q16 0 25 7t21 31h33v-312h-33q-19 74 -43 122.5t-54.5 77.5t-68 41t-83.5 12q-35 0 -63.5 -10.5t-49 -27t-32 -38t-11.5 -43.5q0 -28 8 -52t33.5 -49.5t73 -54.5t127.5 -68 q74 -36 124.5 -71t82 -70t45 -72.5t13.5 -77.5q0 -63 -26.5 -114.5t-69.5 -87.5t-98 -56t-112 -20q-42 0 -90 7t-102 23q-17 5 -30 7.5t-24 2.5q-22 0 -36 -26h-33v327h33q14 -70 42 -123t65.5 -88t83 -53t93.5 -18q34 0 62.5 11t49.5 29.5t32.5 43.5t11.5 54q0 34 -10 61.5 t-37 53.5t-74 54.5t-121 65.5q-74 36 -119.5 67t-71.5 62.5t-35 66t-9 78.5z" />
<glyph unicode="t" horiz-adv-x="569" d="M20 846v33q55 22 112.5 74.5t102.5 124.5q11 19 27.5 53.5t36.5 85.5h31v-301h214v-70h-214v-594q0 -45 7 -74.5t19 -46.5t28.5 -23.5t36.5 -6.5q33 0 64 20.5t48 60.5h39q-18 -49 -43.5 -86t-55.5 -61.5t-64 -37t-68 -12.5q-23 0 -46.5 6.5t-44 19t-37.5 30.5t-27 42 q-21 48 -21 147v616h-145z" />
<glyph unicode="u" d="M2 879v37h321v-613q0 -66 12.5 -107t33.5 -63.5t48.5 -30t57.5 -7.5q21 0 45.5 6t52 21t59.5 40t70 63v519q0 39 -6 64.5t-22.5 41t-45 22t-73.5 7.5v37h312v-555q0 -161 7 -195q8 -35 24.5 -49t38.5 -14q30 0 70 17l14 -35l-274 -113h-45v194q-119 -128 -180 -161 q-62 -33 -131 -33q-77 0 -133 43.5t-79 115.5q-22 69 -22 198v409q0 45 -7.5 73t-24.5 43t-44.5 20t-66.5 5h-12z" />
<glyph unicode="v" d="M17 879v37h431v-37h-28q-39 0 -59.5 -19t-20.5 -51q0 -35 21 -83l213 -506l214 525q23 57 23 85q0 29 -24.5 39t-80.5 10v37h299v-37q-32 -3 -52.5 -11t-34.5 -23t-25 -36.5t-23 -50.5l-325 -786h-41l-327 773q-15 36 -28.5 59.5t-31 38.5t-41 23t-59.5 13z" />
<glyph unicode="w" horiz-adv-x="1479" d="M13 879v37h384v-37q-53 -4 -69.5 -19t-16.5 -43q0 -30 17 -75l196 -527l197 429l-52 135q-10 25 -20.5 43.5t-26.5 30.5t-39.5 18t-58.5 8v37h436v-37q-61 -3 -91.5 -19t-30.5 -58q0 -22 8 -41l208 -526l193 507q20 54 20 86q0 19 -19.5 34t-76.5 17v37h289v-37 q-88 -14 -128 -118l-306 -789h-41l-229 585l-267 -585h-37l-294 770q-14 37 -27.5 60.5t-29.5 38t-37 23t-51 15.5z" />
<glyph unicode="x" d="M27 879v37h431v-37q-42 0 -58 -14t-16 -37q0 -10 4 -20.5t12.5 -24.5t21.5 -33t30 -46l65 -104l75 104q72 99 72 125q0 21 -17 35.5t-55 14.5v37h310v-37q-29 -2 -52.5 -10.5t-48 -28t-52.5 -52.5t-66 -84l-125 -167l228 -328q43 -62 70.5 -96.5t49 -51t42.5 -20.5t51 -5 v-36h-432v36q38 0 63.5 15t25.5 42q0 22 -64 116l-134 196l-147 -196q-68 -90 -68 -108q0 -24 22.5 -43.5t67.5 -21.5v-36h-299v36q21 3 38.5 10t38 25.5t47 51t67.5 86.5l192 255l-174 252q-38 55 -65 87.5t-50 49t-46.5 21.5t-54.5 5z" />
<glyph unicode="y" d="M12 879v37h427v-37h-21q-45 0 -67.5 -19.5t-22.5 -48.5q0 -39 33 -108l223 -462l205 506q17 42 17 81q0 12 -3 21t-12.5 16t-28 10.5t-48.5 3.5v37h298v-37q-26 -3 -43 -7.5t-31.5 -18t-28 -40t-32.5 -72.5l-373 -914q-27 -66 -64 -116.5t-78 -84t-84.5 -51t-83.5 -17.5 q-30 0 -54.5 9.5t-42.5 25t-28 35.5t-10 42q0 42 27.5 67.5t75.5 25.5q11 0 32.5 -6t44 -12.5t40.5 -12.5t23 -6q15 0 31.5 7t34 24t35.5 46.5t36 73.5l65 159l-329 691q-5 11 -16.5 29.5t-24.5 37.5t-26 35t-22 22q-21 16 -74 28z" />
<glyph unicode="z" horiz-adv-x="909" d="M41 0v36l608 810h-300q-50 0 -79.5 -3t-47.5 -9.5t-28.5 -18t-20.5 -29.5q-26 -48 -31 -124h-40v254h774v-37l-614 -812h334q54 0 88 4t56 13.5t34.5 24.5t24.5 37q16 31 27 135h34v-281h-819z" />
<glyph unicode="{" horiz-adv-x="983" d="M283 470v41q53 7 95.5 27t72 49t45 64t15.5 71q0 24 -7 63.5t-16 84t-16 89.5t-7 79q0 68 28 132.5t77.5 116.5t118.5 88t152 47v-35q-59 -14 -101.5 -37.5t-70 -54t-41 -66t-13.5 -73.5q0 -26 7 -68t15.5 -87.5t15.5 -89.5t7 -75q0 -50 -18.5 -100t-55.5 -95.5 t-92.5 -83.5t-128.5 -64q72 -26 127 -65.5t92.5 -86t56.5 -97t19 -99.5q0 -31 -7 -75t-15.5 -89.5t-15.5 -87.5t-7 -68q0 -38 13.5 -73.5t41 -66t70 -54t101.5 -38.5v-35q-83 11 -152 47t-118.5 88.5t-77.5 117t-28 132.5q0 33 7 78t16 90t16 85t7 63q0 35 -16 70t-45.5 64 t-71.5 49.5t-95 27.5z" />
<glyph unicode="|" horiz-adv-x="410" d="M161 -442v1864h83v-1864h-83z" />
<glyph unicode="}" horiz-adv-x="983" d="M177 -407q117 29 171.5 92t54.5 140q0 26 -7 67.5t-16 87t-16 89.5t-7 75q0 51 18.5 101.5t56 95.5t92.5 83t129 64q-72 26 -127 65t-92.5 85.5t-57 97t-19.5 100.5q0 31 7 75t16 89.5t16 87.5t7 68q0 38 -13.5 73.5t-41 66t-70.5 54t-101 37.5v35q83 -11 152 -47 t119 -88.5t77.5 -117t27.5 -132.5q0 -33 -7 -77.5t-16 -89.5t-16 -84.5t-7 -63.5q0 -36 15.5 -71t45 -64t72 -49t95.5 -27v-41q-53 -7 -95 -27t-71.5 -49t-45.5 -64t-16 -71q0 -23 7 -63t16 -85t16 -90t7 -78q0 -67 -27.5 -131.5t-77.5 -117t-119 -89t-152 -47.5v35z" />
<glyph unicode="~" horiz-adv-x="1108" d="M20 400q3 68 23 120t52 87t73 53t86 18q42 0 90 -14q52 -15 120 -40.5t153 -62.5t144.5 -54.5t94.5 -17.5q75 0 126 47.5t60 138.5h45q-2 -66 -22 -117.5t-53 -87t-76.5 -54t-93.5 -18.5q-23 0 -48 3.5t-51 11.5t-94.5 34.5t-179.5 71.5q-157 64 -219 64q-70 0 -118 -43 t-68 -140h-44z" />
<glyph unicode="&#xa1;" horiz-adv-x="682" d="M228 -290q0 12 1.5 28.5l3.5 38.5l89 810h38l89 -810q0 -3 1 -15t2 -26t1.5 -25.5t0.5 -12.5q0 -32 -9 -57.5t-24.5 -44t-36 -28.5t-43.5 -10q-48 0 -80.5 38t-32.5 114zM232 863q0 23 8.5 43t23.5 35t35 24t43 9t43 -8.5t35 -23.5t24 -35.5t9 -43.5t-9 -43t-24 -35 t-35 -23.5t-43 -8.5t-43 8.5t-35 23.5t-23.5 35t-8.5 43z" />
<glyph unicode="&#xa2;" d="M129 452q0 109 33 200.5t91 156.5t136.5 101.5t169.5 36.5q10 0 25.5 -1t35.5 -3l140 383h72l-145 -402q56 -25 92 -49.5t57 -49.5t29 -50.5t8 -52.5q0 -39 -24 -62t-70 -23q-23 0 -41.5 5t-32.5 18.5t-24 37t-14 59.5q-2 16 -6 32t-11 33l-228 -631q25 -17 45 -29 t38.5 -19t37.5 -10t42 -3q30 0 60 7t57 18.5t49 27t36 32.5q30 36 83 147l30 -13q-20 -82 -54.5 -150.5t-83 -118t-110 -77t-136.5 -27.5q-80 0 -162 35l-142 -390h-70l155 427q-81 77 -117 154q-51 109 -51 250zM289 535q0 -39 4 -72t13 -66t24.5 -68.5t39.5 -78.5l223 615 q-29 12 -60 12q-61 0 -106.5 -27.5t-76 -74t-46 -108.5t-15.5 -132z" />
<glyph unicode="&#xa3;" d="M61 105q0 34 12.5 62.5t34.5 49.5t52 32.5t65 11.5q17 0 38 -2t47 -6q2 26 2.5 45t0.5 32q0 87 -21 329h-194v95h194q-7 75 -10 124.5t-3 74.5q0 100 30 179.5t81 135.5t118 86t141 30q64 0 111.5 -20t79 -50t47 -66t15.5 -68q0 -15 -6.5 -30t-17.5 -26.5t-25 -18.5 t-29 -7t-28 4t-23 16.5t-17 35t-10 59.5q-5 61 -35 88.5t-86 27.5q-39 0 -72 -14t-57.5 -46.5t-38.5 -86t-14 -133.5q0 -25 2.5 -67t6.5 -86t7.5 -83t5.5 -59h258v-95h-258q1 -23 1 -40v-28q0 -92 -14 -174t-48 -184q198 -64 224 -69q52 -12 102 -12q84 0 135.5 38t75.5 122 l36 -9q-11 -81 -38.5 -142t-66 -102t-86 -62t-96.5 -21q-69 0 -123 24q-28 12 -78 46t-125 90q-79 -160 -186 -160q-51 0 -84 34.5t-33 94.5zM118 112q0 -36 19.5 -57t45.5 -21q33 0 64.5 31t50.5 107q-43 28 -85 28q-45 0 -70 -24.5t-25 -63.5z" />
<glyph unicode="&#xa4;" d="M27 253l144 145q-102 117 -102 282q0 157 102 283l-144 141l56 57l146 -142q25 22 59.5 40.5t73 32t77.5 21.5t75 8q34 0 71.5 -6.5t74 -19.5t71 -32t63.5 -44l143 142l58 -57l-144 -141q103 -131 103 -281q0 -154 -103 -284l144 -145l-58 -55l-143 143 q-133 -103 -270 -103q-43 0 -87 8t-83.5 22.5t-72 33t-52.5 39.5l-146 -143zM150 677q0 -73 28.5 -138.5t78 -114.5t115 -77.5t139.5 -28.5q73 0 139 29t116 78.5t79 115t29 138.5q0 69 -27.5 134.5t-76.5 115.5t-115 80.5t-143 30.5q-75 0 -140.5 -28.5t-115 -78 t-78 -115.5t-28.5 -141z" />
<glyph unicode="&#xa5;" d="M2 352v73h424v144l-15 36h-409v73h377l-213 496q-19 44 -36 71.5t-36 43.5t-41.5 22t-50.5 7v38h442v-38q-36 -3 -59.5 -9t-37 -14t-19 -18.5t-5.5 -20.5q0 -16 18 -59l214 -519l213 504q21 49 21 75q0 9 -2.5 18t-11 17t-25.5 14t-46 9q-9 0 -27 3v38h346v-38 q-35 0 -59.5 -8.5t-43.5 -27.5t-35.5 -48t-34.5 -71l-214 -485h387v-73h-419l-7 -16v-164h426v-73h-426v-108q0 -51 1.5 -82t6 -50t13.5 -29.5t24 -19.5q37 -22 85 -22h41v-41h-515v41h32q61 0 93.5 19t43.5 64q4 17 4 120v108h-424z" />
<glyph unicode="&#xa6;" horiz-adv-x="410" d="M161 300h83v-742h-83v742zM161 680v742h83v-742h-83z" />
<glyph unicode="&#xa7;" d="M156 504q0 93 53.5 181.5t167.5 157.5q-67 74 -95.5 135t-28.5 124q0 58 22 109.5t60.5 89.5t90.5 60.5t111 22.5q55 0 101.5 -18.5t80 -49.5t52.5 -70.5t19 -81.5q0 -16 -5 -32t-14.5 -29t-24.5 -21t-35 -8q-34 0 -56 23t-22 54q0 5 2 16t4.5 24.5t4.5 28.5t2 27 q0 42 -29 68.5t-80 26.5q-36 0 -68 -13.5t-55.5 -37t-37 -55.5t-13.5 -69q0 -39 11.5 -72t34 -63t55.5 -58.5t77 -59.5q101 -73 169.5 -137.5t105.5 -122.5q52 -82 52 -172q0 -45 -13 -91.5t-40 -90.5t-69 -85t-99 -75q36 -39 59.5 -71.5t37.5 -62t20 -58.5t6 -62 q0 -60 -22 -112.5t-60.5 -91t-90 -60.5t-111.5 -22q-53 0 -99 18.5t-79.5 49.5t-53 72t-19.5 85q0 37 23.5 62.5t54.5 25.5t53 -23.5t22 -63.5q0 -13 -2.5 -28.5t-5.5 -31t-5.5 -29t-2.5 -20.5q0 -19 11 -33.5t28 -24.5t38.5 -15t42.5 -5q33 0 65 14.5t56.5 38t39.5 53 t15 59.5q0 37 -12 71t-37 67t-64 68t-92 75q-188 140 -256 247q-51 81 -51 172zM258 590q0 -71 37 -129q26 -41 75 -88.5t122 -102.5q35 -26 65.5 -51.5t56.5 -49.5q153 93 153 220q0 64 -44 135t-181 178q-42 32 -74.5 59.5t-58.5 50.5q-151 -91 -151 -222z" />
<glyph unicode="&#xa8;" horiz-adv-x="682" d="M57 1228q0 22 8.5 42t23 35t34 23.5t42.5 8.5t43 -8.5t34.5 -23.5t23 -35t8.5 -42q0 -23 -8.5 -42.5t-23.5 -34t-34.5 -23t-41.5 -8.5q-23 0 -42.5 8.5t-34.5 23t-23.5 34t-8.5 42.5zM409 1228q0 22 8.5 42t23.5 35t34.5 23.5t42.5 8.5q22 0 42 -8.5t34.5 -23.5t23 -35 t8.5 -42q0 -23 -8.5 -42.5t-23 -34t-34.5 -23t-42 -8.5q-23 0 -42.5 8.5t-34.5 23t-23.5 34t-8.5 42.5z" />
<glyph unicode="&#xa9;" horiz-adv-x="1556" d="M69 678q0 185 95 355t266 262q170 92 348 92q179 0 349 -92q171 -92 265 -262q48 -85 72 -173.5t24 -181.5q0 -184 -94 -353t-263 -263q-85 -48 -172.5 -70.5t-180.5 -22.5q-184 0 -353 93q-167 92 -262 263q-94 169 -94 353zM131 678q0 -168 85 -322q85 -155 240 -240 q155 -86 322 -86t322 86q154 85 240 240t86 322q0 169 -87 324q-87 156 -242 240t-319 84t-318 -84q-155 -84 -242 -240q-87 -155 -87 -324zM320 672q0 95 37.5 179.5t103.5 147.5t157.5 99.5t199.5 36.5q26 0 43 -1t35 -5t42.5 -11.5t64.5 -20.5q23 -8 37 -8q16 0 27 8.5 t22 36.5h40l20 -280h-39q-36 120 -114 178t-189 58q-73 0 -132.5 -26t-101.5 -76t-64.5 -122t-22.5 -165q0 -107 24 -185t67.5 -128.5t104.5 -75t135 -24.5q195 0 312 162l37 -19q-140 -203 -383 -203q-100 0 -184.5 35t-146.5 95t-97 141t-35 173z" />
<glyph unicode="&#xaa;" horiz-adv-x="565" d="M-6 911q0 51 31 90t98 80q54 32 217 99q0 56 -7 90.5t-20.5 53.5t-33.5 25.5t-45 6.5q-94 0 -94 -89q0 -45 -16.5 -65.5t-41.5 -20.5q-23 0 -39.5 17t-16.5 43q0 27 14 53t42.5 46t72.5 32t105 12q46 0 81 -9t60 -22.5t40.5 -30.5t22.5 -33q14 -34 14 -109v-218 q0 -31 0.5 -46t1.5 -21.5t3.5 -8t7.5 -5.5q7 -6 13 -6q14 0 58 30v-48q-38 -27 -60.5 -42t-37.5 -22t-25.5 -8.5t-25.5 -1.5q-25 0 -44.5 20.5t-28.5 74.5q-127 -91 -215 -91q-26 0 -49.5 10.5t-41.5 27.5t-29 39.5t-11 46.5zM133 958q0 -17 6.5 -32.5t18.5 -27.5t28.5 -19 t35.5 -7q44 0 118 44v226q-61 -21 -101 -43t-63.5 -45.5t-33 -47.5t-9.5 -48z" />
<glyph unicode="&#xab;" d="M64 464l387 470h57l-244 -470l244 -472h-57zM508 464l394 470h58l-243 -470l243 -472h-58z" />
<glyph unicode="&#xac;" horiz-adv-x="1155" d="M36 797v81h1080v-406h-79v325h-1001z" />
<glyph unicode="&#xad;" horiz-adv-x="682" d="M83 384v151h517v-151h-517z" />
<glyph unicode="&#xae;" horiz-adv-x="1556" d="M69 678q0 185 95 355t266 262q170 92 348 92q179 0 349 -92q171 -92 265 -262q48 -85 72 -173.5t24 -181.5q0 -184 -94 -353t-263 -263q-85 -48 -172.5 -70.5t-180.5 -22.5q-184 0 -353 93q-167 92 -262 263q-94 169 -94 353zM131 678q0 -168 85 -322q85 -155 240 -240 q155 -86 322 -86t322 86q154 85 240 240t86 322q0 169 -87 324q-87 156 -242 240t-319 84t-318 -84q-155 -84 -242 -240q-87 -155 -87 -324zM374 249v33q48 0 68 11.5t29 33.5q7 15 7 93v523q0 73 -3 87q-7 23 -25.5 35.5t-63.5 12.5v36h386q72 0 127.5 -17.5t93 -48 t57 -71.5t19.5 -87q0 -76 -51.5 -133.5t-170.5 -88.5l209 -298q16 -23 29 -39t26.5 -26t29 -15.5t36.5 -7.5v-33h-184l-294 405h-76v-309q3 -17 9 -28.5t18.5 -19.5t34 -11.5t56.5 -3.5v-33h-367zM623 697q78 0 132 12.5t88 36.5t49.5 57.5t15.5 75.5q0 39 -15 74t-41.5 61 t-63.5 41t-81 15q-39 0 -84 -16v-357z" />
<glyph unicode="&#xaf;" d="M-17 1462v84h1059v-84h-1059z" />
<glyph unicode="&#xb0;" horiz-adv-x="819" d="M98 1078q0 64 24 120t66 98t98 66t119 24q64 0 120 -24.5t98 -66.5t66 -98t24 -119t-24.5 -119t-66.5 -98t-98 -66t-119 -24t-119 24.5t-97.5 66t-66 97.5t-24.5 119zM182 1079q0 -45 17.5 -85.5t47.5 -71t70.5 -48.5t87.5 -18q46 0 86.5 18t71 48.5t48 71t17.5 85.5 q0 46 -17.5 86.5t-48 71t-71 48t-86.5 17.5t-86.5 -17.5t-71 -48t-48 -71t-17.5 -86.5z" />
<glyph unicode="&#xb1;" horiz-adv-x="1124" d="M8 141v81h498v418h-498v82h498v497h80v-497h500v-82h-500v-418h501v-81h-1079z" />
<glyph unicode="&#xb2;" horiz-adv-x="614" d="M20 664v29q247 192 328 313q50 74 50 143q0 30 -11 56.5t-30.5 46t-46.5 30.5t-58 11q-57 0 -100 -29t-65 -89h-45q14 99 77 154t165 55q53 0 97 -16.5t75.5 -43t49 -60t17.5 -68.5q0 -66 -48 -141q-75 -117 -295 -295h186q45 0 72 2.5t44.5 9t27.5 17.5t20 27h45 l-61 -152h-494z" />
<glyph unicode="&#xb3;" horiz-adv-x="614" d="M44 712q0 17 16.5 31t42.5 14q12 0 34 -7.5t47 -16.5t49.5 -16.5t41.5 -7.5q28 0 53 11t43.5 29t29 42t10.5 50q0 43 -19.5 74.5t-49.5 51.5t-65.5 30t-67.5 10h-30v28q37 0 70.5 13t58 34.5t39 49.5t14.5 58q0 49 -33 80t-88 31q-86 0 -147 -88l-38 16q42 86 99 120.5 t131 34.5q46 0 83 -13t62.5 -33.5t39 -47t13.5 -53.5q0 -68 -105 -155q72 -26 108.5 -74t36.5 -108q0 -51 -22 -96.5t-64 -80t-104 -54.5t-142 -20q-70 0 -108.5 17t-38.5 46z" />
<glyph unicode="&#xb4;" horiz-adv-x="682" d="M236 1045l105 345h224l-295 -345h-34z" />
<glyph unicode="&#xb6;" horiz-adv-x="928" d="M-14 981q0 110 43 180q29 48 67 84.5t87.5 61t112 37t140.5 12.5h495v-55h-133v-1743h-72v1743h-187v-1743h-73v1043q-190 7 -286 50q-48 21 -84 55t-60.5 77t-37 93.5t-12.5 104.5z" />
<glyph unicode="&#xb8;" horiz-adv-x="682" d="M187 -340q14 -2 26 -3t22 -1q25 0 47 9t38.5 24t26 35t9.5 42q0 30 -23 52t-57 22q-5 0 -11.5 -0.5t-14.5 -1.5l111 178h60l-50 -79q63 -16 94 -54t31 -92q0 -36 -16 -69t-45 -57.5t-68.5 -39.5t-85.5 -15q-19 0 -42 1.5t-52 5.5v43z" />
<glyph unicode="&#xb9;" horiz-adv-x="614" d="M136 1297l205 87h35v-592q0 -27 1 -43t3 -25t6.5 -13t11.5 -7q18 -8 79 -8v-32h-325v32q29 0 47 1t28 4t14.5 7.5t7.5 10.5q5 12 5 73v374q0 41 -1.5 65.5t-5.5 37t-11 16.5t-17 4q-19 0 -67 -20z" />
<glyph unicode="&#xba;" horiz-adv-x="635" d="M29 1075q0 69 22 125.5t61 97.5t93 63.5t119 22.5q61 0 114 -23t91 -62.5t60 -93t22 -114.5q0 -62 -24 -117t-65.5 -96.5t-96 -66t-114.5 -24.5q-59 0 -110.5 22t-89.5 60.5t-60 91t-22 114.5zM170 1153q0 -59 11 -115.5t32.5 -100.5t53.5 -71.5t74 -27.5q57 0 94.5 44.5 t37.5 140.5q0 60 -12.5 117t-35.5 102t-55.5 72t-73.5 27q-26 0 -49 -11t-40 -34t-27 -58.5t-10 -84.5z" />
<glyph unicode="&#xbb;" d="M64 -8l243 470l-243 472h58l394 -472l-394 -470h-58zM516 -8l244 470l-244 472h57l387 -472l-387 -470h-57z" />
<glyph unicode="&#xbc;" horiz-adv-x="1536" d="M134 1297l205 87h35v-592q0 -27 1 -43t3 -25t6.5 -13t11.5 -7q18 -8 79 -8v-32h-325v32q29 0 47 1t28 4t14.5 7.5t7.5 10.5q5 12 5 73v374q0 41 -1.5 65.5t-5.5 37t-11 16.5t-17 4q-19 0 -67 -20zM268 -54l935 1438h89l-934 -1438h-90zM933 143v73l376 465h84v-457h108 v-81h-108v-183h-117v183h-343zM1016 224h260v316z" />
<glyph unicode="&#xbd;" horiz-adv-x="1536" d="M134 1297l205 87h35v-592q0 -27 1 -43t3 -25t6.5 -13t11.5 -7q18 -8 79 -8v-32h-325v32q29 0 47 1t28 4t14.5 7.5t7.5 10.5q5 12 5 73v374q0 41 -1.5 65.5t-5.5 37t-11 16.5t-17 4q-19 0 -67 -20zM244 -54l935 1438h89l-935 -1438h-89zM939 -10q247 192 328 313 q50 74 50 143q0 30 -11 56.5t-30.5 46t-46.5 30.5t-58 11q-57 0 -100 -29t-65 -89h-45q14 97 77 153t165 56q53 0 97 -16.5t75.5 -43.5t49 -60.5t17.5 -67.5q0 -67 -48 -142q-74 -114 -295 -294h187q44 0 71.5 2.5t44.5 8.5t27 17t20 28h45l-61 -153h-494v30z" />
<glyph unicode="&#xbe;" horiz-adv-x="1536" d="M42 712q0 17 16.5 31t42.5 14q12 0 34 -7.5t47 -16.5t49.5 -16.5t41.5 -7.5q28 0 53 11t43.5 29t29 42t10.5 50q0 36 -13.5 66t-42 52.5t-72.5 35t-104 12.5v28q37 0 70.5 13t58 34.5t39 49.5t14.5 58q0 49 -33 80t-88 31q-86 0 -147 -88l-38 16q42 86 99 120.5t131 34.5 q46 0 83 -13t62.5 -33.5t39 -47t13.5 -53.5q0 -68 -105 -155q72 -26 108.5 -74t36.5 -108q0 -51 -22 -96.5t-64 -80t-104 -54.5t-142 -20q-70 0 -108.5 17t-38.5 46zM256 -54l935 1438h86l-931 -1438h-90zM933 143v73l376 465h84v-457h108v-81h-108v-183h-116v183h-344z M1017 224h260v316z" />
<glyph unicode="&#xbf;" horiz-adv-x="909" d="M89 -125q0 82 29 152q21 49 58.5 104t91.5 117q108 126 137 192q30 67 36 186h39q-2 -63 -8.5 -111.5t-16.5 -85.5q-20 -72 -102 -246q-82 -173 -82 -289q0 -66 17.5 -117.5t49 -86.5t75 -53.5t94.5 -18.5q43 0 78 11.5t59 30t37 42t13 47.5q0 13 -9.5 36t-21.5 48 t-21.5 48.5t-9.5 37.5q0 34 24 57.5t57 23.5q21 0 40.5 -11t35.5 -31t25.5 -48t9.5 -62q0 -57 -25.5 -109t-72.5 -92.5t-114.5 -64.5t-151.5 -24t-152.5 25t-117 68.5t-75 101t-26.5 122.5zM341 864q0 23 9 43t24 35t35 24t43 9t43 -9t35 -24t24 -35t9 -43t-9 -43t-24 -35 t-35 -24t-43 -9t-43 9t-35 24t-24 35t-9 43z" />
<glyph unicode="&#xc0;" horiz-adv-x="1479" d="M16 0v37q84 15 110 39t53.5 72.5t59.5 122.5l477 1116h35l472 -1128q29 -70 53.5 -112.5t50.5 -66t56.5 -32.5t72.5 -11v-37h-535v37q40 2 67 9t42.5 18t22 25t6.5 31q1 22 -9.5 56.5t-30.5 82.5l-82 195h-525l-92 -214q-34 -78 -34 -118q0 -16 5.5 -29.5t22.5 -25 t48 -19t81 -11.5v-37h-427zM443 528h466l-230 548zM515 1725h223l106 -275h-35z" />
<glyph unicode="&#xc1;" horiz-adv-x="1479" d="M16 0v37q84 15 110 39t53.5 72.5t59.5 122.5l477 1116h35l472 -1128q29 -70 53.5 -112.5t50.5 -66t56.5 -32.5t72.5 -11v-37h-535v37q40 2 67 9t42.5 18t22 25t6.5 31q1 22 -9.5 56.5t-30.5 82.5l-82 195h-525l-92 -214q-34 -78 -34 -118q0 -16 5.5 -29.5t22.5 -25 t48 -19t81 -11.5v-37h-427zM443 528h466l-230 548zM624 1450l106 275h223l-294 -275h-35z" />
<glyph unicode="&#xc2;" horiz-adv-x="1479" d="M16 0v37q84 15 110 39t53.5 72.5t59.5 122.5l477 1116h35l472 -1128q29 -70 53.5 -112.5t50.5 -66t56.5 -32.5t72.5 -11v-37h-535v37q40 2 67 9t42.5 18t22 25t6.5 31q1 22 -9.5 56.5t-30.5 82.5l-82 195h-525l-92 -214q-34 -78 -34 -118q0 -16 5.5 -29.5t22.5 -25 t48 -19t81 -11.5v-37h-427zM443 528h466l-230 548zM478 1434l169 291h184l170 -291h-31l-248 173l-214 -173h-30z" />
<glyph unicode="&#xc3;" horiz-adv-x="1479" d="M16 0v37q84 15 110 39t53.5 72.5t59.5 122.5l477 1116h35l472 -1128q29 -70 53.5 -112.5t50.5 -66t56.5 -32.5t72.5 -11v-37h-535v37q40 2 67 9t42.5 18t22 25t6.5 31q1 22 -9.5 56.5t-30.5 82.5l-82 195h-525l-92 -214q-34 -78 -34 -118q0 -16 5.5 -29.5t22.5 -25 t48 -19t81 -11.5v-37h-427zM420 1467q2 69 17.5 118t40.5 80.5t58 46t72 14.5q24 0 44 -3.5t42.5 -13.5t50 -26.5t65.5 -41.5q41 -28 72 -41t51 -13q15 0 29.5 5.5t26.5 21t22 42.5t17 70h31q0 -65 -15 -114.5t-41 -82.5t-60.5 -49.5t-73.5 -16.5q-78 0 -196 80 q-33 22 -52.5 34.5t-32.5 18.5t-22.5 7t-20.5 1q-41 0 -65 -36q-5 -8 -12.5 -33.5t-15.5 -67.5h-32zM443 528h466l-230 548z" />
<glyph unicode="&#xc4;" horiz-adv-x="1479" d="M16 0v37q84 15 110 39t53.5 72.5t59.5 122.5l477 1116h35l472 -1128q29 -70 53.5 -112.5t50.5 -66t56.5 -32.5t72.5 -11v-37h-535v37q40 2 67 9t42.5 18t22 25t6.5 31q1 22 -9.5 56.5t-30.5 82.5l-82 195h-525l-92 -214q-34 -78 -34 -118q0 -16 5.5 -29.5t22.5 -25 t48 -19t81 -11.5v-37h-427zM443 528h466l-230 548zM455 1598q0 22 8.5 42t23 35t34 23.5t42.5 8.5t43 -8.5t34.5 -23.5t23 -35t8.5 -42q0 -23 -8.5 -42.5t-23.5 -34t-34.5 -23t-41.5 -8.5q-23 0 -42.5 8.5t-34.5 23t-23.5 34t-8.5 42.5zM807 1598q0 22 8.5 42t23.5 35 t34.5 23.5t42.5 8.5q22 0 42 -8.5t34.5 -23.5t23 -35t8.5 -42q0 -23 -8.5 -42.5t-23 -34t-34.5 -23t-42 -8.5q-23 0 -42.5 8.5t-34.5 23t-23.5 34t-8.5 42.5z" />
<glyph unicode="&#xc5;" horiz-adv-x="1479" d="M16 0v37q84 15 110 39t53.5 72.5t59.5 122.5l477 1116h35l472 -1128q29 -70 53.5 -112.5t50.5 -66t56.5 -32.5t72.5 -11v-37h-535v37q40 2 67 9t42.5 18t22 25t6.5 31q1 22 -9.5 56.5t-30.5 82.5l-82 195h-525l-92 -214q-34 -78 -34 -118q0 -16 5.5 -29.5t22.5 -25 t48 -19t81 -11.5v-37h-427zM443 528h466l-230 548zM542 1582q0 40 15 74.5t41 60.5t60.5 41t74.5 15q39 0 74 -15t61.5 -41t41.5 -61t15 -74q0 -40 -15 -75t-41 -61t-61 -41t-75 -15q-39 0 -74 15t-61 41.5t-41 61.5t-15 74zM611 1582q0 -25 9.5 -47.5t26 -39t39 -26 t47.5 -9.5t47.5 10t39 26.5t26 38.5t9.5 47t-9.5 47.5t-26 39t-39 26t-47.5 9.5t-47.5 -9.5t-39 -26t-26 -39t-9.5 -47.5z" />
<glyph unicode="&#xc6;" horiz-adv-x="1821" d="M-24 0v37q32 1 58.5 10.5t53 35t56.5 71.5t70 120l412 771q77 143 77 193q0 18 -8 31.5t-28 24t-53 16.5t-84 9v37h1111v-298h-19q-12 89 -40 140.5t-88 73.5q-27 10 -136 10h-331v-536h257q58 0 98 10t65 33t37.5 60.5t16.5 93.5h36v-471h-36q-6 51 -13.5 83t-19 52 t-28 32t-40.5 23t-116 11h-257v-449q0 -92 7 -109q3 -9 10 -16.5t19 -13t31 -8.5t48 -3h182q55 0 95.5 3.5t72.5 13.5t58.5 27t55.5 44q74 69 120 179h38l-108 -341h-1018v37h51q83 0 122 49q24 31 24 153v286h-396l-124 -233q-70 -131 -70 -173q0 -14 6 -27.5t23.5 -24 t48 -18.5t79.5 -12v-37h-426zM478 598h357v684z" />
<glyph unicode="&#xc7;" horiz-adv-x="1366" d="M74 657q0 121 33 234.5t102 209.5q48 68 109.5 121.5t133 90t150.5 55.5t162 19q147 0 290 -72q44 -23 60 -22q32 0 53.5 26.5t30.5 67.5h35l31 -461h-31q-31 103 -75.5 177t-101.5 121t-126 69t-150 22q-136 0 -241 -66.5t-167 -204.5q-34 -76 -52 -172.5t-18 -216.5 q0 -183 59 -319q30 -69 75.5 -121t103.5 -87t126.5 -53t142.5 -18q84 0 145 17t111 52t96.5 88t102.5 124l31 -20q-51 -90 -110 -156t-128 -109t-149.5 -63.5t-173.5 -20.5q-338 0 -522 250q-138 186 -138 438zM528 -340q14 -2 26 -3t22 -1q25 0 47 9t38.5 24t26 35t9.5 42 q0 30 -23 52t-57 22q-5 0 -11.5 -0.5t-14.5 -1.5l111 178h60l-50 -79q63 -16 94 -54t31 -92q0 -36 -16 -69t-45 -57.5t-68.5 -39.5t-85.5 -15q-19 0 -42 1.5t-52 5.5v43z" />
<glyph unicode="&#xc8;" horiz-adv-x="1251" d="M42 0v37h48q19 0 40 4t39.5 13t33.5 22.5t21 31.5q12 31 12 131v881q0 128 -26 159q-36 40 -120 40h-48v37h1045v-297h-24q-11 54 -22 89t-25 58t-32 36.5t-43 24.5q-41 15 -141 15h-372v-536h298q65 0 105.5 11.5t63.5 36t32 61.5t12 88h37v-472h-37q-7 50 -14 81.5 t-14 45.5q-9 18 -23 31.5t-36 23.5t-53 15t-73 5h-298v-447q0 -89 8 -110q4 -9 10 -17t17.5 -13.5t30 -8.5t46.5 -3h230q59 0 98.5 3.5t69 12t52 24t47.5 39.5q31 30 63 77t64 110h40l-117 -340h-1045zM485 1725h223l106 -275h-35z" />
<glyph unicode="&#xc9;" horiz-adv-x="1251" d="M42 0v37h48q19 0 40 4t39.5 13t33.5 22.5t21 31.5q12 31 12 131v881q0 128 -26 159q-36 40 -120 40h-48v37h1045v-297h-24q-11 54 -22 89t-25 58t-32 36.5t-43 24.5q-41 15 -141 15h-372v-536h298q65 0 105.5 11.5t63.5 36t32 61.5t12 88h37v-472h-37q-7 50 -14 81.5 t-14 45.5q-9 18 -23 31.5t-36 23.5t-53 15t-73 5h-298v-447q0 -89 8 -110q4 -9 10 -17t17.5 -13.5t30 -8.5t46.5 -3h230q59 0 98.5 3.5t69 12t52 24t47.5 39.5q31 30 63 77t64 110h40l-117 -340h-1045zM444 1450l106 275h223l-294 -275h-35z" />
<glyph unicode="&#xca;" horiz-adv-x="1251" d="M42 0v37h48q19 0 40 4t39.5 13t33.5 22.5t21 31.5q12 31 12 131v881q0 128 -26 159q-36 40 -120 40h-48v37h1045v-297h-24q-11 54 -22 89t-25 58t-32 36.5t-43 24.5q-41 15 -141 15h-372v-536h298q65 0 105.5 11.5t63.5 36t32 61.5t12 88h37v-472h-37q-7 50 -14 81.5 t-14 45.5q-9 18 -23 31.5t-36 23.5t-53 15t-73 5h-298v-447q0 -89 8 -110q4 -9 10 -17t17.5 -13.5t30 -8.5t46.5 -3h230q59 0 98.5 3.5t69 12t52 24t47.5 39.5q31 30 63 77t64 110h40l-117 -340h-1045zM358 1434l169 291h184l170 -291h-31l-248 173l-214 -173h-30z" />
<glyph unicode="&#xcb;" horiz-adv-x="1251" d="M42 0v37h48q19 0 40 4t39.5 13t33.5 22.5t21 31.5q12 31 12 131v881q0 128 -26 159q-36 40 -120 40h-48v37h1045v-297h-24q-11 54 -22 89t-25 58t-32 36.5t-43 24.5q-41 15 -141 15h-372v-536h298q65 0 105.5 11.5t63.5 36t32 61.5t12 88h37v-472h-37q-7 50 -14 81.5 t-14 45.5q-9 18 -23 31.5t-36 23.5t-53 15t-73 5h-298v-447q0 -89 8 -110q4 -9 10 -17t17.5 -13.5t30 -8.5t46.5 -3h230q59 0 98.5 3.5t69 12t52 24t47.5 39.5q31 30 63 77t64 110h40l-117 -340h-1045zM341 1598q0 22 8.5 42t23 35t34 23.5t42.5 8.5t43 -8.5t34.5 -23.5 t23 -35t8.5 -42q0 -23 -8.5 -42.5t-23.5 -34t-34.5 -23t-41.5 -8.5q-23 0 -42.5 8.5t-34.5 23t-23.5 34t-8.5 42.5zM693 1598q0 22 8.5 42t23.5 35t34.5 23.5t42.5 8.5q22 0 42 -8.5t34.5 -23.5t23 -35t8.5 -42q0 -23 -8.5 -42.5t-23 -34t-34.5 -23t-42 -8.5 q-23 0 -42.5 8.5t-34.5 23t-23.5 34t-8.5 42.5z" />
<glyph unicode="&#xcc;" horiz-adv-x="682" d="M51 0v37h48q85 0 122 49q24 31 24 154v876q0 48 -2 78t-7.5 49.5t-16 30.5t-28.5 21q-44 24 -92 24h-48v37h581v-37h-49q-84 0 -121 -49q-25 -31 -25 -154v-876q0 -48 2 -78t7.5 -49t16.5 -30.5t29 -21.5q43 -24 91 -24h49v-37h-581zM189 1725h223l106 -275h-35z" />
<glyph unicode="&#xcd;" horiz-adv-x="682" d="M51 0v37h48q85 0 122 49q24 31 24 154v876q0 48 -2 78t-7.5 49.5t-16 30.5t-28.5 21q-44 24 -92 24h-48v37h581v-37h-49q-84 0 -121 -49q-25 -31 -25 -154v-876q0 -48 2 -78t7.5 -49t16.5 -30.5t29 -21.5q43 -24 91 -24h49v-37h-581zM216 1450l106 275h223l-294 -275h-35 z" />
<glyph unicode="&#xce;" horiz-adv-x="682" d="M51 0v37h48q85 0 122 49q24 31 24 154v876q0 48 -2 78t-7.5 49.5t-16 30.5t-28.5 21q-44 24 -92 24h-48v37h581v-37h-49q-84 0 -121 -49q-25 -31 -25 -154v-876q0 -48 2 -78t7.5 -49t16.5 -30.5t29 -21.5q43 -24 91 -24h49v-37h-581zM79 1434l169 291h184l170 -291h-31 l-248 173l-214 -173h-30z" />
<glyph unicode="&#xcf;" horiz-adv-x="682" d="M51 0v37h48q85 0 122 49q24 31 24 154v876q0 48 -2 78t-7.5 49.5t-16 30.5t-28.5 21q-44 24 -92 24h-48v37h581v-37h-49q-84 0 -121 -49q-25 -31 -25 -154v-876q0 -48 2 -78t7.5 -49t16.5 -30.5t29 -21.5q43 -24 91 -24h49v-37h-581zM57 1598q0 22 8.5 42t23 35t34 23.5 t42.5 8.5t43 -8.5t34.5 -23.5t23 -35t8.5 -42q0 -23 -8.5 -42.5t-23.5 -34t-34.5 -23t-41.5 -8.5q-23 0 -42.5 8.5t-34.5 23t-23.5 34t-8.5 42.5zM409 1598q0 22 8.5 42t23.5 35t34.5 23.5t42.5 8.5q22 0 42 -8.5t34.5 -23.5t23 -35t8.5 -42q0 -23 -8.5 -42.5t-23 -34 t-34.5 -23t-42 -8.5q-23 0 -42.5 8.5t-34.5 23t-23.5 34t-8.5 42.5z" />
<glyph unicode="&#xd0;" horiz-adv-x="1479" d="M35 0v37h51q85 0 123 56q21 31 21 147v438h-195v74h195v364q0 128 -28 159q-39 44 -116 44h-51v37h552q314 0 466 -72t249 -229q98 -158 98 -368q0 -288 -184 -487q-183 -200 -576 -200h-605zM423 100q125 -28 213 -28q115 0 213 42.5t170 121t113 190.5t41 251 q0 140 -40.5 252t-113.5 190.5t-173 120.5t-218 42q-45 0 -96 -7.5t-109 -21.5v-501h393v-74h-393v-578z" />
<glyph unicode="&#xd1;" horiz-adv-x="1479" d="M-27 1319v37h368l829 -1017v782q0 125 -28 156q-38 42 -117 42h-47v37h472v-37h-48q-86 0 -122 -52q-22 -31 -22 -146v-1143h-36l-894 1092v-835q0 -125 27 -156q37 -42 117 -42h48v-37h-472v37h47q87 0 123 52q22 31 22 146v943q-30 35 -50 56t-38 34.5t-39 22t-52 19.5 q-29 9 -88 9zM420 1467q2 69 17.5 118t40.5 80.5t58 46t72 14.5q24 0 44 -3.5t42.5 -13.5t50 -26.5t65.5 -41.5q41 -28 72 -41t51 -13q15 0 29.5 5.5t26.5 21t22 42.5t17 70h31q0 -65 -15 -114.5t-41 -82.5t-60.5 -49.5t-73.5 -16.5q-78 0 -196 80q-33 22 -52.5 34.5 t-32.5 18.5t-22.5 7t-20.5 1q-41 0 -65 -36q-5 -8 -12.5 -33.5t-15.5 -67.5h-32z" />
<glyph unicode="&#xd2;" horiz-adv-x="1479" d="M72 683q0 323 220 527q191 177 457 177q263 0 457 -201q194 -200 194 -500q0 -309 -195 -513t-472 -204q-281 0 -471 199t-190 515zM301 687q0 -143 28 -262t82.5 -204.5t134.5 -133t185 -47.5q94 0 174.5 36t139.5 111.5t92.5 192.5t33.5 279q0 155 -27.5 276.5 t-83 205.5t-138 128.5t-192.5 44.5q-103 0 -183 -44t-134.5 -125.5t-83 -197.5t-28.5 -260zM555 1725h223l106 -275h-35z" />
<glyph unicode="&#xd3;" horiz-adv-x="1479" d="M72 683q0 323 220 527q191 177 457 177q263 0 457 -201q194 -200 194 -500q0 -309 -195 -513t-472 -204q-281 0 -471 199t-190 515zM301 687q0 -143 28 -262t82.5 -204.5t134.5 -133t185 -47.5q94 0 174.5 36t139.5 111.5t92.5 192.5t33.5 279q0 155 -27.5 276.5 t-83 205.5t-138 128.5t-192.5 44.5q-103 0 -183 -44t-134.5 -125.5t-83 -197.5t-28.5 -260zM624 1450l106 275h223l-294 -275h-35z" />
<glyph unicode="&#xd4;" horiz-adv-x="1479" d="M72 683q0 323 220 527q191 177 457 177q263 0 457 -201q194 -200 194 -500q0 -309 -195 -513t-472 -204q-281 0 -471 199t-190 515zM301 687q0 -143 28 -262t82.5 -204.5t134.5 -133t185 -47.5q94 0 174.5 36t139.5 111.5t92.5 192.5t33.5 279q0 155 -27.5 276.5 t-83 205.5t-138 128.5t-192.5 44.5q-103 0 -183 -44t-134.5 -125.5t-83 -197.5t-28.5 -260zM478 1434l169 291h184l170 -291h-31l-248 173l-214 -173h-30z" />
<glyph unicode="&#xd5;" horiz-adv-x="1479" d="M72 683q0 323 220 527q191 177 457 177q263 0 457 -201q194 -200 194 -500q0 -309 -195 -513t-472 -204q-281 0 -471 199t-190 515zM301 687q0 -143 28 -262t82.5 -204.5t134.5 -133t185 -47.5q94 0 174.5 36t139.5 111.5t92.5 192.5t33.5 279q0 155 -27.5 276.5 t-83 205.5t-138 128.5t-192.5 44.5q-103 0 -183 -44t-134.5 -125.5t-83 -197.5t-28.5 -260zM420 1467q2 69 17.5 118t40.5 80.5t58 46t72 14.5q24 0 44 -3.5t42.5 -13.5t50 -26.5t65.5 -41.5q41 -28 72 -41t51 -13q15 0 29.5 5.5t26.5 21t22 42.5t17 70h31q0 -65 -15 -114.5 t-41 -82.5t-60.5 -49.5t-73.5 -16.5q-78 0 -196 80q-33 22 -52.5 34.5t-32.5 18.5t-22.5 7t-20.5 1q-41 0 -65 -36q-5 -8 -12.5 -33.5t-15.5 -67.5h-32z" />
<glyph unicode="&#xd6;" horiz-adv-x="1479" d="M72 683q0 323 220 527q191 177 457 177q263 0 457 -201q194 -200 194 -500q0 -309 -195 -513t-472 -204q-281 0 -471 199t-190 515zM301 687q0 -143 28 -262t82.5 -204.5t134.5 -133t185 -47.5q94 0 174.5 36t139.5 111.5t92.5 192.5t33.5 279q0 155 -27.5 276.5 t-83 205.5t-138 128.5t-192.5 44.5q-103 0 -183 -44t-134.5 -125.5t-83 -197.5t-28.5 -260zM455 1598q0 22 8.5 42t23 35t34 23.5t42.5 8.5t43 -8.5t34.5 -23.5t23 -35t8.5 -42q0 -23 -8.5 -42.5t-23.5 -34t-34.5 -23t-41.5 -8.5q-23 0 -42.5 8.5t-34.5 23t-23.5 34 t-8.5 42.5zM807 1598q0 22 8.5 42t23.5 35t34.5 23.5t42.5 8.5q22 0 42 -8.5t34.5 -23.5t23 -35t8.5 -42q0 -23 -8.5 -42.5t-23 -34t-34.5 -23t-42 -8.5q-23 0 -42.5 8.5t-34.5 23t-23.5 34t-8.5 42.5z" />
<glyph unicode="&#xd7;" horiz-adv-x="1155" d="M165 328l353 353l-352 352l58 58l352 -352l352 352l56 -57l-352 -352l354 -354l-57 -58l-354 354l-353 -353z" />
<glyph unicode="&#xd8;" horiz-adv-x="1479" d="M73 692q0 94 23 182t66 165.5t103.5 141t134.5 109.5t160.5 71.5t180.5 25.5q227 0 406 -149l131 162l58 -44l-133 -167q52 -59 89.5 -115t61.5 -115t35.5 -125.5t11.5 -146.5q0 -93 -22.5 -182t-64 -168.5t-100 -147t-131.5 -116.5t-158.5 -76.5t-180.5 -27.5 q-51 0 -107.5 9.5t-111.5 28t-105.5 45t-89.5 60.5l-129 -159l-59 47l132 164q-201 207 -201 528zM302 697q0 -232 73 -408l688 846q-115 181 -327 181q-85 0 -150 -25.5t-113 -70t-81 -104.5t-53 -128.5t-28.5 -143t-8.5 -147.5zM416 217q63 -97 142 -136.5t172 -39.5 q84 0 149.5 25t114.5 69t82.5 103t54.5 127.5t30 142.5t9 148q0 59 -3 109t-11 97.5t-21.5 96t-33.5 104.5z" />
<glyph unicode="&#xd9;" horiz-adv-x="1479" d="M11 1319v37h586v-37h-52q-48 0 -77 -13.5t-44 -39.5t-19.5 -64t-4.5 -86v-591q0 -50 3 -99t12 -94.5t24.5 -86t40.5 -74.5q39 -54 104.5 -85.5t167.5 -31.5q66 0 126.5 15.5t111 43t87.5 65t56 82.5q39 91 39 307v549q0 128 -28 159q-39 44 -116 44h-51v37h480v-37h-51 q-80 0 -123 -67q-21 -32 -21 -144v-550q0 -203 -41 -317q-26 -73 -74 -124.5t-111 -84.5t-138.5 -48.5t-157.5 -15.5q-221 0 -337 77q-73 48 -112.5 101.5t-58 118t-21.5 143t-3 178.5v530q0 63 -8.5 103t-26.5 62t-45.5 30t-65.5 8h-51zM555 1725h223l106 -275h-35z" />
<glyph unicode="&#xda;" horiz-adv-x="1479" d="M11 1319v37h586v-37h-52q-48 0 -77 -13.5t-44 -39.5t-19.5 -64t-4.5 -86v-591q0 -50 3 -99t12 -94.5t24.5 -86t40.5 -74.5q39 -54 104.5 -85.5t167.5 -31.5q66 0 126.5 15.5t111 43t87.5 65t56 82.5q39 91 39 307v549q0 128 -28 159q-39 44 -116 44h-51v37h480v-37h-51 q-80 0 -123 -67q-21 -32 -21 -144v-550q0 -203 -41 -317q-26 -73 -74 -124.5t-111 -84.5t-138.5 -48.5t-157.5 -15.5q-221 0 -337 77q-73 48 -112.5 101.5t-58 118t-21.5 143t-3 178.5v530q0 63 -8.5 103t-26.5 62t-45.5 30t-65.5 8h-51zM594 1450l106 275h223l-294 -275 h-35z" />
<glyph unicode="&#xdb;" horiz-adv-x="1479" d="M11 1319v37h586v-37h-52q-48 0 -77 -13.5t-44 -39.5t-19.5 -64t-4.5 -86v-591q0 -50 3 -99t12 -94.5t24.5 -86t40.5 -74.5q39 -54 104.5 -85.5t167.5 -31.5q66 0 126.5 15.5t111 43t87.5 65t56 82.5q39 91 39 307v549q0 128 -28 159q-39 44 -116 44h-51v37h480v-37h-51 q-80 0 -123 -67q-21 -32 -21 -144v-550q0 -203 -41 -317q-26 -73 -74 -124.5t-111 -84.5t-138.5 -48.5t-157.5 -15.5q-221 0 -337 77q-73 48 -112.5 101.5t-58 118t-21.5 143t-3 178.5v530q0 63 -8.5 103t-26.5 62t-45.5 30t-65.5 8h-51zM478 1434l169 291h184l170 -291h-31 l-248 173l-214 -173h-30z" />
<glyph unicode="&#xdc;" horiz-adv-x="1479" d="M11 1319v37h586v-37h-52q-48 0 -77 -13.5t-44 -39.5t-19.5 -64t-4.5 -86v-591q0 -50 3 -99t12 -94.5t24.5 -86t40.5 -74.5q39 -54 104.5 -85.5t167.5 -31.5q66 0 126.5 15.5t111 43t87.5 65t56 82.5q39 91 39 307v549q0 128 -28 159q-39 44 -116 44h-51v37h480v-37h-51 q-80 0 -123 -67q-21 -32 -21 -144v-550q0 -203 -41 -317q-26 -73 -74 -124.5t-111 -84.5t-138.5 -48.5t-157.5 -15.5q-221 0 -337 77q-73 48 -112.5 101.5t-58 118t-21.5 143t-3 178.5v530q0 63 -8.5 103t-26.5 62t-45.5 30t-65.5 8h-51zM455 1598q0 22 8.5 42t23 35 t34 23.5t42.5 8.5t43 -8.5t34.5 -23.5t23 -35t8.5 -42q0 -23 -8.5 -42.5t-23.5 -34t-34.5 -23t-41.5 -8.5q-23 0 -42.5 8.5t-34.5 23t-23.5 34t-8.5 42.5zM807 1598q0 22 8.5 42t23.5 35t34.5 23.5t42.5 8.5q22 0 42 -8.5t34.5 -23.5t23 -35t8.5 -42q0 -23 -8.5 -42.5 t-23 -34t-34.5 -23t-42 -8.5q-23 0 -42.5 8.5t-34.5 23t-23.5 34t-8.5 42.5z" />
<glyph unicode="&#xdd;" horiz-adv-x="1479" d="M19 1319v37h580v-37h-30q-22 0 -44.5 -5t-40.5 -16t-29.5 -27.5t-11.5 -39.5q0 -36 61 -130l283 -437l266 418q60 94 60 140q-2 21 -9 39t-22 31t-41 20t-65 7v37h473v-37h-26q-12 0 -32.5 -6t-43.5 -17t-47 -28t-44 -38q-21 -22 -45.5 -57t-55.5 -83l-327 -515v-340 q0 -125 28 -156q37 -42 120 -42h44v-37h-576v37h48q86 0 122 52q22 31 22 146v321l-372 568q-33 51 -55.5 81.5t-34.5 43.5q-6 6 -20 17.5t-35 23.5t-46.5 20.5t-53.5 8.5zM624 1450l106 275h223l-294 -275h-35z" />
<glyph unicode="&#xde;" horiz-adv-x="1139" d="M36 0v37h38q92 0 133 56q20 29 20 147v868q0 113 -11 140t-48.5 49t-91.5 22h-40v37h578v-37h-40q-16 0 -36.5 -3t-40 -11.5t-36.5 -22.5t-26 -35q-15 -35 -15 -134v-65h74q150 0 224 -12q75 -13 137.5 -43t108 -75t71 -105t25.5 -133q0 -74 -24 -136.5t-72 -110.5 t-119 -80t-164 -44q-18 -2 -65.5 -3.5t-125.5 -1.5h-70v-61q0 -66 8 -106t26 -62.5t47.5 -30t71.5 -7.5h41v-37h-578zM420 375h44q99 0 168.5 22.5t113.5 63t64 96.5t20 122q0 80 -28.5 135.5t-75 90t-107 50t-123.5 15.5h-76v-595z" />
<glyph unicode="&#xdf;" d="M35 0v36q46 3 72.5 12.5t40 30.5t16.5 56t3 90v741q0 126 24 213t69.5 141t112 78t151.5 24q81 0 146 -24.5t110.5 -67.5t70.5 -103t25 -130q0 -47 -9 -86.5t-31 -74t-59 -63t-92 -52.5q136 -40 204.5 -138.5t68.5 -260.5q0 -85 -23.5 -163.5t-67 -139t-105.5 -96.5 t-139 -36q-44 0 -79 13t-60.5 35t-39 51.5t-13.5 62.5q0 42 21.5 64.5t57.5 22.5q39 0 60.5 -21.5t21.5 -57.5q0 -20 -5 -40t-5 -28q0 -18 15 -32t41 -14q72 0 111 71t39 198q0 104 -18.5 187.5t-55 142.5t-92 93t-129.5 39v57q106 0 160.5 62.5t54.5 208.5q0 67 -13.5 115 t-39 79t-61 45.5t-78.5 14.5q-39 0 -72.5 -13.5t-58 -49t-38.5 -97.5t-14 -159v-1037h-298z" />
<glyph unicode="&#xe0;" horiz-adv-x="909" d="M73 217q0 39 10.5 72t31.5 62.5t53.5 56.5t76.5 53q103 61 338 146v36q0 69 -11.5 115t-33 73.5t-53.5 39t-72 11.5q-32 0 -57.5 -9.5t-43.5 -25t-27.5 -36t-9.5 -41.5l2 -58q0 -46 -23.5 -71t-61.5 -25q-37 0 -60.5 26t-23.5 71q0 42 22.5 83t65 74t105 53t142.5 20 q106 0 180 -31t107 -107q18 -44 18 -176v-311q0 -66 1.5 -106t3.5 -55q5 -29 16.5 -39t26.5 -10q10 0 19 3t21 12t28 24.5t41 40.5v-56q-113 -150 -214 -150q-48 0 -78 34t-30 116q-141 -110 -177 -126q-53 -25 -115 -25q-47 0 -87 17t-69 48t-45.5 74.5t-16.5 96.5z M241 264q0 -36 11.5 -66.5t31 -53t45.5 -35t54 -12.5q76 0 200 100v349q-76 -30 -124.5 -51t-70.5 -34q-79 -45 -113 -92.5t-34 -104.5zM290 1390h223l106 -345h-35z" />
<glyph unicode="&#xe1;" horiz-adv-x="909" d="M73 217q0 39 10.5 72t31.5 62.5t53.5 56.5t76.5 53q103 61 338 146v36q0 69 -11.5 115t-33 73.5t-53.5 39t-72 11.5q-32 0 -57.5 -9.5t-43.5 -25t-27.5 -36t-9.5 -41.5l2 -58q0 -46 -23.5 -71t-61.5 -25q-37 0 -60.5 26t-23.5 71q0 42 22.5 83t65 74t105 53t142.5 20 q106 0 180 -31t107 -107q18 -44 18 -176v-311q0 -66 1.5 -106t3.5 -55q5 -29 16.5 -39t26.5 -10q10 0 19 3t21 12t28 24.5t41 40.5v-56q-113 -150 -214 -150q-48 0 -78 34t-30 116q-141 -110 -177 -126q-53 -25 -115 -25q-47 0 -87 17t-69 48t-45.5 74.5t-16.5 96.5z M241 264q0 -36 11.5 -66.5t31 -53t45.5 -35t54 -12.5q76 0 200 100v349q-76 -30 -124.5 -51t-70.5 -34q-79 -45 -113 -92.5t-34 -104.5zM290 1045l105 345h224l-295 -345h-34z" />
<glyph unicode="&#xe2;" horiz-adv-x="909" d="M73 217q0 39 10.5 72t31.5 62.5t53.5 56.5t76.5 53q103 61 338 146v36q0 69 -11.5 115t-33 73.5t-53.5 39t-72 11.5q-32 0 -57.5 -9.5t-43.5 -25t-27.5 -36t-9.5 -41.5l2 -58q0 -46 -23.5 -71t-61.5 -25q-37 0 -60.5 26t-23.5 71q0 42 22.5 83t65 74t105 53t142.5 20 q106 0 180 -31t107 -107q18 -44 18 -176v-311q0 -66 1.5 -106t3.5 -55q5 -29 16.5 -39t26.5 -10q10 0 19 3t21 12t28 24.5t41 40.5v-56q-113 -150 -214 -150q-48 0 -78 34t-30 116q-141 -110 -177 -126q-53 -25 -115 -25q-47 0 -87 17t-69 48t-45.5 74.5t-16.5 96.5z M173 1054l189 331h184l190 -331h-31l-273 213l-229 -213h-30zM241 264q0 -36 11.5 -66.5t31 -53t45.5 -35t54 -12.5q76 0 200 100v349q-76 -30 -124.5 -51t-70.5 -34q-79 -45 -113 -92.5t-34 -104.5z" />
<glyph unicode="&#xe3;" horiz-adv-x="909" d="M73 217q0 39 10.5 72t31.5 62.5t53.5 56.5t76.5 53q103 61 338 146v36q0 69 -11.5 115t-33 73.5t-53.5 39t-72 11.5q-32 0 -57.5 -9.5t-43.5 -25t-27.5 -36t-9.5 -41.5l2 -58q0 -46 -23.5 -71t-61.5 -25q-37 0 -60.5 26t-23.5 71q0 42 22.5 83t65 74t105 53t142.5 20 q106 0 180 -31t107 -107q18 -44 18 -176v-311q0 -66 1.5 -106t3.5 -55q5 -29 16.5 -39t26.5 -10q10 0 19 3t21 12t28 24.5t41 40.5v-56q-113 -150 -214 -150q-48 0 -78 34t-30 116q-141 -110 -177 -126q-53 -25 -115 -25q-47 0 -87 17t-69 48t-45.5 74.5t-16.5 96.5z M135 1097q2 69 17.5 118t40.5 80.5t58 46t72 14.5q24 0 44 -3.5t42.5 -13.5t50 -26.5t65.5 -41.5q41 -28 72 -41t51 -13q15 0 29.5 5.5t26.5 21t22 42.5t17 70h31q0 -65 -15 -114.5t-41 -82.5t-60.5 -49.5t-73.5 -16.5q-78 0 -196 80q-33 22 -52.5 34.5t-32.5 18.5t-22.5 7 t-20.5 1q-41 0 -65 -36q-5 -8 -12.5 -33.5t-15.5 -67.5h-32zM241 264q0 -36 11.5 -66.5t31 -53t45.5 -35t54 -12.5q76 0 200 100v349q-76 -30 -124.5 -51t-70.5 -34q-79 -45 -113 -92.5t-34 -104.5z" />
<glyph unicode="&#xe4;" horiz-adv-x="909" d="M73 217q0 39 10.5 72t31.5 62.5t53.5 56.5t76.5 53q103 61 338 146v36q0 69 -11.5 115t-33 73.5t-53.5 39t-72 11.5q-32 0 -57.5 -9.5t-43.5 -25t-27.5 -36t-9.5 -41.5l2 -58q0 -46 -23.5 -71t-61.5 -25q-37 0 -60.5 26t-23.5 71q0 42 22.5 83t65 74t105 53t142.5 20 q106 0 180 -31t107 -107q18 -44 18 -176v-311q0 -66 1.5 -106t3.5 -55q5 -29 16.5 -39t26.5 -10q10 0 19 3t21 12t28 24.5t41 40.5v-56q-113 -150 -214 -150q-48 0 -78 34t-30 116q-141 -110 -177 -126q-53 -25 -115 -25q-47 0 -87 17t-69 48t-45.5 74.5t-16.5 96.5z M170 1228q0 22 8.5 42t23 35t34 23.5t42.5 8.5t43 -8.5t34.5 -23.5t23 -35t8.5 -42q0 -23 -8.5 -42.5t-23.5 -34t-34.5 -23t-41.5 -8.5q-23 0 -42.5 8.5t-34.5 23t-23.5 34t-8.5 42.5zM241 264q0 -36 11.5 -66.5t31 -53t45.5 -35t54 -12.5q76 0 200 100v349 q-76 -30 -124.5 -51t-70.5 -34q-79 -45 -113 -92.5t-34 -104.5zM522 1228q0 22 8.5 42t23.5 35t34.5 23.5t42.5 8.5q22 0 42 -8.5t34.5 -23.5t23 -35t8.5 -42q0 -23 -8.5 -42.5t-23 -34t-34.5 -23t-42 -8.5q-23 0 -42.5 8.5t-34.5 23t-23.5 34t-8.5 42.5z" />
<glyph unicode="&#xe5;" horiz-adv-x="909" d="M73 217q0 39 10.5 72t31.5 62.5t53.5 56.5t76.5 53q103 61 338 146v36q0 69 -11.5 115t-33 73.5t-53.5 39t-72 11.5q-32 0 -57.5 -9.5t-43.5 -25t-27.5 -36t-9.5 -41.5l2 -58q0 -46 -23.5 -71t-61.5 -25q-37 0 -60.5 26t-23.5 71q0 42 22.5 83t65 74t105 53t142.5 20 q106 0 180 -31t107 -107q18 -44 18 -176v-311q0 -66 1.5 -106t3.5 -55q5 -29 16.5 -39t26.5 -10q10 0 19 3t21 12t28 24.5t41 40.5v-56q-113 -150 -214 -150q-48 0 -78 34t-30 116q-141 -110 -177 -126q-53 -25 -115 -25q-47 0 -87 17t-69 48t-45.5 74.5t-16.5 96.5z M241 264q0 -36 11.5 -66.5t31 -53t45.5 -35t54 -12.5q76 0 200 100v349q-76 -30 -124.5 -51t-70.5 -34q-79 -45 -113 -92.5t-34 -104.5zM267 1235q0 40 15 74.5t41 60.5t60.5 41t74.5 15q39 0 74 -15t61.5 -41t41.5 -61t15 -74q0 -40 -15 -75t-41 -61t-61 -41t-75 -15 q-39 0 -74 15t-61 41.5t-41 61.5t-15 74zM336 1235q0 -25 9.5 -47.5t26 -39t39 -26t47.5 -9.5t47.5 10t39 26.5t26 38.5t9.5 47t-9.5 47.5t-26 39t-39 26t-47.5 9.5t-47.5 -9.5t-39 -26t-26 -39t-9.5 -47.5z" />
<glyph unicode="&#xe6;" horiz-adv-x="1366" d="M73 201q0 44 9 80t33 68t65.5 62.5t106.5 63.5q78 40 147 70.5t129 51.5v92q0 54 -10.5 91.5t-29.5 61t-46.5 34t-60.5 10.5t-59.5 -9t-44.5 -24t-27.5 -34t-9.5 -38q0 -50 -4 -81t-13.5 -48.5t-25 -24t-37.5 -6.5q-23 0 -40 9t-28 22.5t-16.5 30.5t-5.5 33 q0 41 22.5 81.5t65.5 73t105 53t142 20.5q62 0 108 -9.5t79 -26.5t53 -39.5t30 -47.5q27 34 56.5 58t62.5 38t70 20.5t80 6.5q72 0 131.5 -24.5t102.5 -72.5t67 -118.5t24 -161.5h-570q-1 -26 -1 -45v-29q0 -102 19.5 -172.5t53.5 -114.5t81 -64t102 -20q97 0 176 61 q50 40 107 159l32 -22q-15 -66 -46 -129t-77.5 -111.5t-108.5 -78t-138 -29.5q-108 0 -185 47q-35 22 -111 113q-5 -4 -25 -19.5t-42.5 -33t-42 -32t-23.5 -16.5q-48 -27 -100 -43t-109 -16q-48 0 -88.5 18t-70.5 49t-47 73t-17 89zM241 258q0 -40 13 -73t35 -56.5t51 -36.5 t62 -13q20 0 39.5 4t43 15.5t53.5 32t72 53.5q-10 22 -18.5 52.5t-15 65.5t-10 71.5t-3.5 69.5v89q-135 -42 -248 -128q-74 -57 -74 -146zM734 632h378q-1 63 -15 108.5t-38.5 75t-58 43.5t-73.5 14q-39 0 -74 -15.5t-61 -46.5t-41.5 -76t-16.5 -103z" />
<glyph unicode="&#xe7;" horiz-adv-x="909" d="M70 457q0 108 35 197.5t94.5 153.5t139 99.5t168.5 35.5q67 0 123.5 -20t97.5 -52t64.5 -71t23.5 -77t-24 -61.5t-69 -23.5q-23 0 -42.5 5t-34 18t-23.5 36t-12 59q-5 59 -39.5 89.5t-97.5 30.5q-59 0 -104 -26.5t-76 -72t-46.5 -106t-15.5 -128.5q0 -80 20.5 -154.5 t59 -132.5t93.5 -93t125 -35q42 0 80 10.5t73 36.5t67.5 71.5t62.5 115.5l29 -14q-19 -91 -57 -161t-89 -118t-112 -72.5t-126 -24.5q-77 0 -147 34t-123.5 97t-85.5 152.5t-32 201.5zM300 -340q14 -2 26 -3t22 -1q25 0 47 9t38.5 24t26 35t9.5 42q0 30 -23 52t-57 22 q-5 0 -11.5 -0.5t-14.5 -1.5l111 178h60l-50 -79q63 -16 94 -54t31 -92q0 -36 -16 -69t-45 -57.5t-68.5 -39.5t-85.5 -15q-19 0 -42 1.5t-52 5.5v43z" />
<glyph unicode="&#xe8;" horiz-adv-x="909" d="M76 446q0 119 32.5 211.5t89.5 156.5t134.5 97t166.5 33q76 0 140.5 -26.5t111.5 -75.5t73.5 -117.5t26.5 -153.5h-633q0 -102 27 -183t73 -137.5t106.5 -86t127.5 -29.5q90 0 156.5 49.5t111.5 169.5l31 -20q-11 -67 -42 -132t-79.5 -116t-113 -82.5t-140.5 -31.5 q-82 0 -154.5 33.5t-127 95t-86.5 149t-32 196.5zM218 629h424q-4 88 -21 124q-25 56 -74.5 88t-103.5 32q-41 0 -79 -16.5t-69 -48t-51.5 -76.5t-25.5 -103zM290 1390h223l106 -345h-35z" />
<glyph unicode="&#xe9;" horiz-adv-x="909" d="M76 446q0 119 32.5 211.5t89.5 156.5t134.5 97t166.5 33q76 0 140.5 -26.5t111.5 -75.5t73.5 -117.5t26.5 -153.5h-633q0 -102 27 -183t73 -137.5t106.5 -86t127.5 -29.5q90 0 156.5 49.5t111.5 169.5l31 -20q-11 -67 -42 -132t-79.5 -116t-113 -82.5t-140.5 -31.5 q-82 0 -154.5 33.5t-127 95t-86.5 149t-32 196.5zM218 629h424q-4 88 -21 124q-25 56 -74.5 88t-103.5 32q-41 0 -79 -16.5t-69 -48t-51.5 -76.5t-25.5 -103zM290 1045l105 345h224l-295 -345h-34z" />
<glyph unicode="&#xea;" horiz-adv-x="909" d="M76 446q0 119 32.5 211.5t89.5 156.5t134.5 97t166.5 33q76 0 140.5 -26.5t111.5 -75.5t73.5 -117.5t26.5 -153.5h-633q0 -102 27 -183t73 -137.5t106.5 -86t127.5 -29.5q90 0 156.5 49.5t111.5 169.5l31 -20q-11 -67 -42 -132t-79.5 -116t-113 -82.5t-140.5 -31.5 q-82 0 -154.5 33.5t-127 95t-86.5 149t-32 196.5zM173 1054l189 331h184l190 -331h-31l-273 213l-229 -213h-30zM218 629h424q-4 88 -21 124q-25 56 -74.5 88t-103.5 32q-41 0 -79 -16.5t-69 -48t-51.5 -76.5t-25.5 -103z" />
<glyph unicode="&#xeb;" horiz-adv-x="909" d="M76 446q0 119 32.5 211.5t89.5 156.5t134.5 97t166.5 33q76 0 140.5 -26.5t111.5 -75.5t73.5 -117.5t26.5 -153.5h-633q0 -102 27 -183t73 -137.5t106.5 -86t127.5 -29.5q90 0 156.5 49.5t111.5 169.5l31 -20q-11 -67 -42 -132t-79.5 -116t-113 -82.5t-140.5 -31.5 q-82 0 -154.5 33.5t-127 95t-86.5 149t-32 196.5zM170 1228q0 22 8.5 42t23 35t34 23.5t42.5 8.5t43 -8.5t34.5 -23.5t23 -35t8.5 -42q0 -23 -8.5 -42.5t-23.5 -34t-34.5 -23t-41.5 -8.5q-23 0 -42.5 8.5t-34.5 23t-23.5 34t-8.5 42.5zM218 629h424q-4 88 -21 124 q-25 56 -74.5 88t-103.5 32q-41 0 -79 -16.5t-69 -48t-51.5 -76.5t-25.5 -103zM522 1228q0 22 8.5 42t23.5 35t34.5 23.5t42.5 8.5q22 0 42 -8.5t34.5 -23.5t23 -35t8.5 -42q0 -23 -8.5 -42.5t-23 -34t-34.5 -23t-42 -8.5q-23 0 -42.5 8.5t-34.5 23t-23.5 34t-8.5 42.5z" />
<glyph unicode="&#xec;" horiz-adv-x="569" d="M60 831l276 112h43v-736q0 -44 3 -71.5t9.5 -44t16 -25.5t21.5 -16q26 -14 90 -14v-36h-445v36q34 0 55.5 3t35 10t21 17.5t14.5 25.5q14 31 14 115v353q0 87 -3 137t-10.5 75t-22 31.5t-36.5 6.5q-28 0 -68 -15zM77 1390h223l106 -345h-35z" />
<glyph unicode="&#xed;" horiz-adv-x="569" d="M60 831l276 112h43v-736q0 -44 3 -71.5t9.5 -44t16 -25.5t21.5 -16q26 -14 90 -14v-36h-445v36q34 0 55.5 3t35 10t21 17.5t14.5 25.5q14 31 14 115v353q0 87 -3 137t-10.5 75t-22 31.5t-36.5 6.5q-28 0 -68 -15zM169 1045l105 345h224l-295 -345h-34z" />
<glyph unicode="&#xee;" horiz-adv-x="569" d="M13 1054l189 331h184l190 -331h-31l-273 213l-229 -213h-30zM60 831l276 112h43v-736q0 -44 3 -71.5t9.5 -44t16 -25.5t21.5 -16q26 -14 90 -14v-36h-445v36q34 0 55.5 3t35 10t21 17.5t14.5 25.5q14 31 14 115v353q0 87 -3 137t-10.5 75t-22 31.5t-36.5 6.5 q-28 0 -68 -15z" />
<glyph unicode="&#xef;" horiz-adv-x="569" d="M2 1227q0 22 8.5 42t23 35t34 23.5t42.5 8.5t43 -8.5t34.5 -23.5t23 -35t8.5 -42q0 -23 -8.5 -42.5t-23.5 -34t-34.5 -23t-41.5 -8.5q-23 0 -42.5 8.5t-34.5 23t-23.5 34t-8.5 42.5zM60 831l276 112h43v-736q0 -44 3 -71.5t9.5 -44t16 -25.5t21.5 -16q26 -14 90 -14v-36 h-445v36q34 0 55.5 3t35 10t21 17.5t14.5 25.5q14 31 14 115v353q0 87 -3 137t-10.5 75t-22 31.5t-36.5 6.5q-28 0 -68 -15zM354 1227q0 22 8.5 42t23.5 35t34.5 23.5t42.5 8.5q22 0 42 -8.5t34.5 -23.5t23 -35t8.5 -42q0 -23 -8.5 -42.5t-23 -34t-34.5 -23t-42 -8.5 q-23 0 -42.5 8.5t-34.5 23t-23.5 34t-8.5 42.5z" />
<glyph unicode="&#xf0;" d="M68 441q0 93 31.5 182t87 158.5t132.5 111.5t169 42q23 0 42 -2t38 -8t40.5 -17.5t48.5 -31.5q-79 165 -188 293l-247 -135l-30 55l233 132l-57 57t-41.5 38t-39.5 29.5t-50 33.5l27 43q60 -30 121.5 -68.5t125.5 -86.5l249 139l34 -55l-229 -130q189 -164 287 -364 q97 -197 97 -383q0 -140 -58 -256q-28 -57 -69 -103t-91.5 -77.5t-109 -48.5t-122.5 -17q-89 0 -167.5 35.5t-137 98t-92.5 148.5t-34 187zM253 518q0 -116 25.5 -204.5t67 -149t94 -91.5t107.5 -31q45 0 84.5 19t69 59.5t46.5 104t17 152.5q0 111 -20.5 202.5t-58 157 t-90 101.5t-116.5 36q-47 0 -88.5 -19t-72 -61t-48 -110t-17.5 -166z" />
<glyph unicode="&#xf1;" d="M12 831l276 112h43v-194q161 194 307 194q51 0 94 -17t75 -57t50 -106t18 -165v-391q0 -59 6.5 -93t22.5 -51.5t43 -22t68 -4.5v-36h-453v36h19q45 0 70.5 8t38.5 27.5t16.5 52.5t3.5 83v375q0 125 -32.5 181.5t-109.5 56.5q-119 0 -237 -130v-483q0 -91 11 -115 q7 -15 15.5 -26t23 -17.5t38 -9.5t61.5 -3v-36h-453v36h20q36 0 59 8t36.5 28t18.5 52.5t5 82.5v340q0 163 -8 201q-7 36 -22.5 49t-41.5 13q-28 0 -67 -15zM192 1097q2 69 17.5 118t40.5 80.5t58 46t72 14.5q24 0 44 -3.5t42.5 -13.5t50 -26.5t65.5 -41.5q41 -28 72 -41 t51 -13q15 0 29.5 5.5t26.5 21t22 42.5t17 70h31q0 -65 -15 -114.5t-41 -82.5t-60.5 -49.5t-73.5 -16.5q-78 0 -196 80q-33 22 -52.5 34.5t-32.5 18.5t-22.5 7t-20.5 1q-41 0 -65 -36q-5 -8 -12.5 -33.5t-15.5 -67.5h-32z" />
<glyph unicode="&#xf2;" d="M69 449q0 93 32 182t90.5 158.5t140 111.5t180.5 42q97 0 178 -38t139.5 -102t91 -149t32.5 -179q0 -99 -33.5 -189.5t-93.5 -160.5t-143 -111.5t-182 -41.5q-97 0 -176.5 40t-136.5 106.5t-88 152.5t-31 178zM255 533q0 -97 20.5 -186t58 -156.5t91 -107.5t119.5 -40 q48 0 88.5 18.5t70.5 60t47 109.5t17 167t-19 186t-55.5 152.5t-90 103.5t-121.5 38q-44 0 -84.5 -18.5t-72 -60t-50.5 -107t-19 -159.5zM347 1390h223l106 -345h-35z" />
<glyph unicode="&#xf3;" d="M69 449q0 93 32 182t90.5 158.5t140 111.5t180.5 42q97 0 178 -38t139.5 -102t91 -149t32.5 -179q0 -99 -33.5 -189.5t-93.5 -160.5t-143 -111.5t-182 -41.5q-97 0 -176.5 40t-136.5 106.5t-88 152.5t-31 178zM255 533q0 -97 20.5 -186t58 -156.5t91 -107.5t119.5 -40 q48 0 88.5 18.5t70.5 60t47 109.5t17 167t-19 186t-55.5 152.5t-90 103.5t-121.5 38q-44 0 -84.5 -18.5t-72 -60t-50.5 -107t-19 -159.5zM347 1045l105 345h224l-295 -345h-34z" />
<glyph unicode="&#xf4;" d="M69 449q0 93 32 182t90.5 158.5t140 111.5t180.5 42q97 0 178 -38t139.5 -102t91 -149t32.5 -179q0 -99 -33.5 -189.5t-93.5 -160.5t-143 -111.5t-182 -41.5q-97 0 -176.5 40t-136.5 106.5t-88 152.5t-31 178zM230 1054l189 331h184l190 -331h-31l-273 213l-229 -213h-30 zM255 533q0 -97 20.5 -186t58 -156.5t91 -107.5t119.5 -40q48 0 88.5 18.5t70.5 60t47 109.5t17 167t-19 186t-55.5 152.5t-90 103.5t-121.5 38q-44 0 -84.5 -18.5t-72 -60t-50.5 -107t-19 -159.5z" />
<glyph unicode="&#xf5;" d="M69 449q0 93 32 182t90.5 158.5t140 111.5t180.5 42q97 0 178 -38t139.5 -102t91 -149t32.5 -179q0 -99 -33.5 -189.5t-93.5 -160.5t-143 -111.5t-182 -41.5q-97 0 -176.5 40t-136.5 106.5t-88 152.5t-31 178zM192 1097q2 69 17.5 118t40.5 80.5t58 46t72 14.5 q24 0 44 -3.5t42.5 -13.5t50 -26.5t65.5 -41.5q41 -28 72 -41t51 -13q15 0 29.5 5.5t26.5 21t22 42.5t17 70h31q0 -65 -15 -114.5t-41 -82.5t-60.5 -49.5t-73.5 -16.5q-78 0 -196 80q-33 22 -52.5 34.5t-32.5 18.5t-22.5 7t-20.5 1q-41 0 -65 -36q-5 -8 -12.5 -33.5 t-15.5 -67.5h-32zM255 533q0 -97 20.5 -186t58 -156.5t91 -107.5t119.5 -40q48 0 88.5 18.5t70.5 60t47 109.5t17 167t-19 186t-55.5 152.5t-90 103.5t-121.5 38q-44 0 -84.5 -18.5t-72 -60t-50.5 -107t-19 -159.5z" />
<glyph unicode="&#xf6;" d="M69 449q0 93 32 182t90.5 158.5t140 111.5t180.5 42q97 0 178 -38t139.5 -102t91 -149t32.5 -179q0 -99 -33.5 -189.5t-93.5 -160.5t-143 -111.5t-182 -41.5q-97 0 -176.5 40t-136.5 106.5t-88 152.5t-31 178zM227 1228q0 22 8.5 42t23 35t34 23.5t42.5 8.5t43 -8.5 t34.5 -23.5t23 -35t8.5 -42q0 -23 -8.5 -42.5t-23.5 -34t-34.5 -23t-41.5 -8.5q-23 0 -42.5 8.5t-34.5 23t-23.5 34t-8.5 42.5zM255 533q0 -97 20.5 -186t58 -156.5t91 -107.5t119.5 -40q48 0 88.5 18.5t70.5 60t47 109.5t17 167t-19 186t-55.5 152.5t-90 103.5t-121.5 38 q-44 0 -84.5 -18.5t-72 -60t-50.5 -107t-19 -159.5zM579 1228q0 22 8.5 42t23.5 35t34.5 23.5t42.5 8.5q22 0 42 -8.5t34.5 -23.5t23 -35t8.5 -42q0 -23 -8.5 -42.5t-23 -34t-34.5 -23t-42 -8.5q-23 0 -42.5 8.5t-34.5 23t-23.5 34t-8.5 42.5z" />
<glyph unicode="&#xf7;" horiz-adv-x="1124" d="M23 640v82h1078v-82h-1078zM474 367q0 36 25.5 62t62.5 26t62.5 -26t25.5 -62q0 -18 -7 -34t-19 -28t-28 -19t-34 -7t-34 7t-28 19t-19 28t-7 34zM474 988q0 36 25.5 61.5t62.5 25.5q36 0 61.5 -25.5t25.5 -61.5t-25.5 -61.5t-62.5 -25.5q-36 0 -61.5 25.5t-25.5 61.5z " />
<glyph unicode="&#xf8;" d="M39 -24l141 159q-24 30 -44 69.5t-33.5 82.5t-21 86.5t-7.5 81.5q0 95 34.5 183.5t95 156t142 108t175.5 40.5q82 0 148.5 -26t136.5 -85l133 147l46 -43l-135 -152q106 -134 106 -312q0 -98 -33 -188.5t-92.5 -159.5t-142 -110.5t-181.5 -41.5q-42 0 -77.5 6t-69.5 19.5 t-67.5 35t-71.5 53.5l-135 -153zM260 532q0 -124 39 -262l405 449q-26 44 -50.5 74.5t-50 49t-54 26.5t-61.5 8q-48 0 -89.5 -19t-72.5 -60t-48.5 -107t-17.5 -159zM329 204q26 -47 50 -77.5t49.5 -49.5t54.5 -26.5t64 -7.5q48 0 89 18.5t71 60.5t47 110.5t17 169.5 q0 121 -39 252z" />
<glyph unicode="&#xf9;" d="M2 879v37h321v-613q0 -66 12.5 -107t33.5 -63.5t48.5 -30t57.5 -7.5q21 0 45.5 6t52 21t59.5 40t70 63v519q0 39 -6 64.5t-22.5 41t-45 22t-73.5 7.5v37h312v-555q0 -161 7 -195q8 -35 24.5 -49t38.5 -14q30 0 70 17l14 -35l-274 -113h-45v194q-119 -128 -180 -161 q-62 -33 -131 -33q-77 0 -133 43.5t-79 115.5q-22 69 -22 198v409q0 45 -7.5 73t-24.5 43t-44.5 20t-66.5 5h-12zM347 1390h223l106 -345h-35z" />
<glyph unicode="&#xfa;" d="M2 879v37h321v-613q0 -66 12.5 -107t33.5 -63.5t48.5 -30t57.5 -7.5q21 0 45.5 6t52 21t59.5 40t70 63v519q0 39 -6 64.5t-22.5 41t-45 22t-73.5 7.5v37h312v-555q0 -161 7 -195q8 -35 24.5 -49t38.5 -14q30 0 70 17l14 -35l-274 -113h-45v194q-119 -128 -180 -161 q-62 -33 -131 -33q-77 0 -133 43.5t-79 115.5q-22 69 -22 198v409q0 45 -7.5 73t-24.5 43t-44.5 20t-66.5 5h-12zM347 1045l105 345h224l-295 -345h-34z" />
<glyph unicode="&#xfb;" d="M2 879v37h321v-613q0 -66 12.5 -107t33.5 -63.5t48.5 -30t57.5 -7.5q21 0 45.5 6t52 21t59.5 40t70 63v519q0 39 -6 64.5t-22.5 41t-45 22t-73.5 7.5v37h312v-555q0 -161 7 -195q8 -35 24.5 -49t38.5 -14q30 0 70 17l14 -35l-274 -113h-45v194q-119 -128 -180 -161 q-62 -33 -131 -33q-77 0 -133 43.5t-79 115.5q-22 69 -22 198v409q0 45 -7.5 73t-24.5 43t-44.5 20t-66.5 5h-12zM230 1054l189 331h184l190 -331h-31l-273 213l-229 -213h-30z" />
<glyph unicode="&#xfc;" d="M2 879v37h321v-613q0 -66 12.5 -107t33.5 -63.5t48.5 -30t57.5 -7.5q21 0 45.5 6t52 21t59.5 40t70 63v519q0 39 -6 64.5t-22.5 41t-45 22t-73.5 7.5v37h312v-555q0 -161 7 -195q8 -35 24.5 -49t38.5 -14q30 0 70 17l14 -35l-274 -113h-45v194q-119 -128 -180 -161 q-62 -33 -131 -33q-77 0 -133 43.5t-79 115.5q-22 69 -22 198v409q0 45 -7.5 73t-24.5 43t-44.5 20t-66.5 5h-12zM227 1228q0 22 8.5 42t23 35t34 23.5t42.5 8.5t43 -8.5t34.5 -23.5t23 -35t8.5 -42q0 -23 -8.5 -42.5t-23.5 -34t-34.5 -23t-41.5 -8.5q-23 0 -42.5 8.5 t-34.5 23t-23.5 34t-8.5 42.5zM579 1228q0 22 8.5 42t23.5 35t34.5 23.5t42.5 8.5q22 0 42 -8.5t34.5 -23.5t23 -35t8.5 -42q0 -23 -8.5 -42.5t-23 -34t-34.5 -23t-42 -8.5q-23 0 -42.5 8.5t-34.5 23t-23.5 34t-8.5 42.5z" />
<glyph unicode="&#xfd;" d="M12 879v37h427v-37h-21q-45 0 -67.5 -19.5t-22.5 -48.5q0 -39 33 -108l223 -462l205 506q17 42 17 81q0 12 -3 21t-12.5 16t-28 10.5t-48.5 3.5v37h298v-37q-26 -3 -43 -7.5t-31.5 -18t-28 -40t-32.5 -72.5l-373 -914q-27 -66 -64 -116.5t-78 -84t-84.5 -51t-83.5 -17.5 q-30 0 -54.5 9.5t-42.5 25t-28 35.5t-10 42q0 42 27.5 67.5t75.5 25.5q11 0 32.5 -6t44 -12.5t40.5 -12.5t23 -6q15 0 31.5 7t34 24t35.5 46.5t36 73.5l65 159l-329 691q-5 11 -16.5 29.5t-24.5 37.5t-26 35t-22 22q-21 16 -74 28zM347 1045l105 345h224l-295 -345h-34z" />
<glyph unicode="&#xfe;" d="M-7 -399l25 -1q40 -2 74 10t49 47q11 25 11 123v1349q0 53 -3.5 85t-13 49t-25 22.5t-39.5 5.5t-61 -15l-12 32l282 114h38v-697q36 60 71.5 102t71.5 67.5t73.5 37t76.5 11.5q78 0 141.5 -36t108 -97.5t69 -143.5t24.5 -175q0 -104 -29.5 -198.5t-84 -165.5t-131.5 -113 t-173 -42q-33 0 -61 3t-53.5 12t-50.5 24.5t-53 41.5v-279q0 -48 2.5 -76t8.5 -43.5t15.5 -23.5t24.5 -15q28 -15 104 -15v-38h-480v38zM318 324q0 -112 9 -146q7 -29 24.5 -55.5t44.5 -46.5t61.5 -32t75.5 -12q58 0 103.5 27.5t76.5 76t47 115.5t16 146q0 86 -17.5 159.5 t-49.5 127t-77 84t-100 30.5q-49 0 -95 -24q-37 -18 -119 -108v-342z" />
<glyph unicode="&#xff;" d="M12 879v37h427v-37h-21q-45 0 -67.5 -19.5t-22.5 -48.5q0 -39 33 -108l223 -462l205 506q17 42 17 81q0 12 -3 21t-12.5 16t-28 10.5t-48.5 3.5v37h298v-37q-26 -3 -43 -7.5t-31.5 -18t-28 -40t-32.5 -72.5l-373 -914q-27 -66 -64 -116.5t-78 -84t-84.5 -51t-83.5 -17.5 q-30 0 -54.5 9.5t-42.5 25t-28 35.5t-10 42q0 42 27.5 67.5t75.5 25.5q11 0 32.5 -6t44 -12.5t40.5 -12.5t23 -6q15 0 31.5 7t34 24t35.5 46.5t36 73.5l65 159l-329 691q-5 11 -16.5 29.5t-24.5 37.5t-26 35t-22 22q-21 16 -74 28zM227 1228q0 22 8.5 42t23 35t34 23.5 t42.5 8.5t43 -8.5t34.5 -23.5t23 -35t8.5 -42q0 -23 -8.5 -42.5t-23.5 -34t-34.5 -23t-41.5 -8.5q-23 0 -42.5 8.5t-34.5 23t-23.5 34t-8.5 42.5zM579 1228q0 22 8.5 42t23.5 35t34.5 23.5t42.5 8.5q22 0 42 -8.5t34.5 -23.5t23 -35t8.5 -42q0 -23 -8.5 -42.5t-23 -34 t-34.5 -23t-42 -8.5q-23 0 -42.5 8.5t-34.5 23t-23.5 34t-8.5 42.5z" />
<glyph unicode="&#x152;" horiz-adv-x="1821" d="M75 676q0 258 141 455q169 237 493 237q2 0 24.5 -1t59.5 -2t83.5 -3t97.5 -3t101.5 -2t94.5 -1h473v-298h-20q-24 118 -43 149q-25 40 -77 62q-32 13 -143 13h-256v-535h183q58 0 98 11.5t65 35.5t36 61t11 88h39v-472h-39q-5 62 -16.5 101.5t-35 62t-62 30.5t-96.5 8 h-183v-448q0 -41 2.5 -65.5t7.5 -39t13 -22t20 -14.5q16 -8 77 -8h104q63 0 102.5 2t67 9.5t49 22t47.5 38.5q75 67 129 192h40l-108 -340h-485q-45 0 -95.5 -1t-101 -3t-98 -4t-86.5 -4t-66 -3t-36 -1q-170 0 -309 85q-70 43 -124.5 105.5t-96.5 144.5q-82 164 -82 357z M305 668q0 -131 26 -243.5t77 -194.5t126.5 -128.5t174.5 -46.5q77 0 122.5 25t62.5 72q18 46 18 188v702q0 67 -5 108t-14 65.5t-22.5 37t-30.5 22.5q-50 29 -127 29q-92 0 -167 -40.5t-128.5 -120t-83 -199t-29.5 -276.5z" />
<glyph unicode="&#x153;" horiz-adv-x="1479" d="M67 443q0 115 33.5 208t91.5 157.5t135 99.5t163 35q108 0 186 -44t126 -114q29 43 59 73t64 49t73 28t87 9q71 0 131 -24.5t103.5 -70t67.5 -111.5t24 -149v-16h-548q-1 -13 -1.5 -22t-0.5 -16q0 -93 22 -166.5t60 -125t88.5 -79t107.5 -27.5q80 0 141.5 51t97.5 167 l33 -17q-18 -96 -50 -165.5t-75.5 -114t-97.5 -65.5t-117 -21q-48 0 -90 12.5t-76 34t-60 51t-43 63.5q-125 -161 -318 -161q-87 0 -163.5 33.5t-132.5 95t-88.5 148.5t-32.5 194zM254 539q0 -98 17 -188t49.5 -158.5t80 -109t108.5 -40.5q43 0 80.5 16.5t65.5 55.5 t44 103.5t16 159.5q0 115 -17 209t-50.5 161t-82.5 103.5t-112 36.5q-35 0 -70 -16.5t-64 -56.5t-47 -107t-18 -169zM863 638h351q0 47 -11 90.5t-32.5 76.5t-54.5 52.5t-77 19.5q-33 0 -63.5 -15t-54.5 -44.5t-39.5 -74.5t-18.5 -105z" />
<glyph unicode="&#x178;" horiz-adv-x="1479" d="M19 1319v37h580v-37h-30q-22 0 -44.5 -5t-40.5 -16t-29.5 -27.5t-11.5 -39.5q0 -36 61 -130l283 -437l266 418q60 94 60 140q-2 21 -9 39t-22 31t-41 20t-65 7v37h473v-37h-26q-12 0 -32.5 -6t-43.5 -17t-47 -28t-44 -38q-21 -22 -45.5 -57t-55.5 -83l-327 -515v-340 q0 -125 28 -156q37 -42 120 -42h44v-37h-576v37h48q86 0 122 52q22 31 22 146v321l-372 568q-33 51 -55.5 81.5t-34.5 43.5q-6 6 -20 17.5t-35 23.5t-46.5 20.5t-53.5 8.5zM479 1598q0 22 8.5 42t23 35t34 23.5t42.5 8.5t43 -8.5t34.5 -23.5t23 -35t8.5 -42 q0 -23 -8.5 -42.5t-23.5 -34t-34.5 -23t-41.5 -8.5q-23 0 -42.5 8.5t-34.5 23t-23.5 34t-8.5 42.5zM831 1598q0 22 8.5 42t23.5 35t34.5 23.5t42.5 8.5q22 0 42 -8.5t34.5 -23.5t23 -35t8.5 -42q0 -23 -8.5 -42.5t-23 -34t-34.5 -23t-42 -8.5q-23 0 -42.5 8.5t-34.5 23 t-23.5 34t-8.5 42.5z" />
<glyph unicode="&#x2c6;" horiz-adv-x="682" d="M60 1054l189 331h184l190 -331h-31l-273 213l-229 -213h-30z" />
<glyph unicode="&#x2dc;" horiz-adv-x="682" d="M22 1097q2 69 17.5 118t40.5 80.5t58 46t72 14.5q24 0 44 -3.5t42.5 -13.5t50 -26.5t65.5 -41.5q41 -28 72 -41t51 -13q15 0 29.5 5.5t26.5 21t22 42.5t17 70h31q0 -65 -15 -114.5t-41 -82.5t-60.5 -49.5t-73.5 -16.5q-78 0 -196 80q-33 22 -52.5 34.5t-32.5 18.5 t-22.5 7t-20.5 1q-41 0 -65 -36q-5 -8 -12.5 -33.5t-15.5 -67.5h-32z" />
<glyph unicode="&#x2000;" horiz-adv-x="886" />
<glyph unicode="&#x2001;" horiz-adv-x="1773" />
<glyph unicode="&#x2002;" horiz-adv-x="886" />
<glyph unicode="&#x2003;" horiz-adv-x="1773" />
<glyph unicode="&#x2004;" horiz-adv-x="591" />
<glyph unicode="&#x2005;" horiz-adv-x="443" />
<glyph unicode="&#x2006;" horiz-adv-x="295" />
<glyph unicode="&#x2007;" horiz-adv-x="295" />
<glyph unicode="&#x2008;" horiz-adv-x="221" />
<glyph unicode="&#x2009;" horiz-adv-x="354" />
<glyph unicode="&#x200a;" horiz-adv-x="98" />
<glyph unicode="&#x2010;" horiz-adv-x="682" d="M83 384v151h517v-151h-517z" />
<glyph unicode="&#x2011;" horiz-adv-x="682" d="M83 384v151h517v-151h-517z" />
<glyph unicode="&#x2012;" horiz-adv-x="682" d="M83 384v151h517v-151h-517z" />
<glyph unicode="&#x2013;" d="M-18 453v73h1059v-73h-1059z" />
<glyph unicode="&#x2014;" horiz-adv-x="2048" d="M-19 453v74h2085v-74h-2085z" />
<glyph unicode="&#x2018;" horiz-adv-x="682" d="M185 1067q0 48 14.5 94.5t46 88.5t80.5 77t118 60v-43q-45 -27 -77 -51.5t-51.5 -49t-28.5 -50.5t-9 -56q0 -31 11.5 -46.5t26.5 -15.5q6 0 15.5 2.5t20 5.5t20.5 5.5t16 2.5q20 0 38.5 -8t32.5 -22.5t22.5 -33.5t8.5 -41q0 -30 -12 -52t-30.5 -36.5t-42 -21.5t-46.5 -7 q-34 0 -65.5 15.5t-55.5 42t-38.5 62.5t-14.5 78z" />
<glyph unicode="&#x2019;" horiz-adv-x="682" d="M193 1271q0 29 11.5 50.5t30 36t42 22t47.5 7.5q33 0 64.5 -15.5t55.5 -42t39 -62.5t15 -77q0 -48 -15 -94.5t-46.5 -88.5t-80.5 -77.5t-118 -60.5v47q45 27 76.5 50.5t51.5 47.5t29 50t9 57q0 32 -11.5 46.5t-25.5 14.5q-6 0 -15.5 -2.5t-20 -5.5t-20.5 -5.5t-16 -2.5 q-20 0 -38.5 8t-32.5 22t-22.5 33t-8.5 42z" />
<glyph unicode="&#x201a;" horiz-adv-x="682" d="M203 81q0 25 10 46.5t27.5 37.5t41 25.5t50.5 9.5q32 0 62.5 -15t54 -42.5t38 -66.5t14.5 -86q0 -51 -17.5 -100t-54 -91.5t-92.5 -78.5t-134 -61v44q51 17 91 44.5t68 61.5t42.5 73t14.5 78q0 15 -7 28t-16 13q-3 0 -12 -4.5t-20.5 -10t-25.5 -10t-28 -4.5q-49 0 -78 29 t-29 80z" />
<glyph unicode="&#x201c;" horiz-adv-x="909" d="M67 1073q0 50 17.5 98t50.5 89.5t81 74t110 52.5v-41q-88 -46 -126 -95.5t-38 -109.5q0 -34 9.5 -48t22.5 -14t35 7.5t40 7.5q21 0 39.5 -8t32.5 -22.5t22 -33.5t8 -41q0 -24 -10 -45.5t-27 -37t-41 -25t-51 -9.5q-33 0 -64.5 15.5t-56 42.5t-39.5 64t-15 79zM546 1070 q0 52 17.5 101.5t50.5 90.5t80.5 72.5t108.5 49.5v-38q-51 -30 -83.5 -55t-50.5 -49.5t-24.5 -50.5t-6.5 -57q0 -29 11 -42.5t23 -13.5q11 0 33 8t44 8q20 0 38.5 -8t32.5 -21.5t22.5 -32.5t8.5 -40q0 -24 -10.5 -46t-28.5 -38.5t-42 -26.5t-52 -10q-33 0 -64 15t-55 42 t-38.5 63.5t-14.5 78.5z" />
<glyph unicode="&#x201d;" horiz-adv-x="909" d="M63 1271q0 29 11.5 50.5t30 36t42 22t47.5 7.5q33 0 64.5 -15.5t55.5 -42t39 -62.5t15 -77q0 -48 -15 -94.5t-46.5 -88.5t-80.5 -77.5t-118 -60.5v47q45 27 76.5 50.5t51.5 47.5t29 50t9 57q0 32 -11.5 46.5t-25.5 14.5q-6 0 -15.5 -2.5t-20 -5.5t-20.5 -5.5t-16 -2.5 q-20 0 -38.5 8t-32.5 22t-22.5 33t-8.5 42zM546 1271q0 29 11.5 50.5t30 36t42 22t47.5 7.5q33 0 64.5 -15.5t55.5 -42t39 -62.5t15 -77q0 -48 -15 -94.5t-46.5 -88.5t-80.5 -77.5t-118 -60.5v47q45 27 76.5 50.5t51.5 47.5t29 50t9 57q0 32 -11.5 46.5t-25.5 14.5 q-6 0 -15.5 -2.5t-20 -5.5t-20.5 -5.5t-16 -2.5q-20 0 -38.5 8t-32.5 22t-22.5 33t-8.5 42z" />
<glyph unicode="&#x201e;" horiz-adv-x="909" d="M70 81q0 25 10 46.5t27.5 37.5t41 25.5t50.5 9.5q32 0 62.5 -15t54 -42.5t38 -66.5t14.5 -86q0 -51 -17.5 -100t-54 -91.5t-92.5 -78.5t-134 -61v44q51 17 91 44.5t68 61.5t42.5 73t14.5 78q0 15 -7 28t-16 13q-3 0 -12 -4.5t-20.5 -10t-25.5 -10t-28 -4.5q-49 0 -78 29 t-29 80zM543 81q0 25 10 46.5t27.5 37.5t41 25.5t50.5 9.5q32 0 62.5 -15t54 -42.5t38 -66.5t14.5 -86q0 -51 -17.5 -100t-54 -91.5t-92.5 -78.5t-134 -61v44q51 17 91 44.5t68 61.5t42.5 73t14.5 78q0 15 -7 28t-16 13q-3 0 -12 -4.5t-20.5 -10t-25.5 -10t-28 -4.5 q-49 0 -78 29t-29 80z" />
<glyph unicode="&#x2022;" horiz-adv-x="717" d="M112 677q0 51 20 97t54 80t79.5 54t97.5 20q51 0 96.5 -20t80 -54.5t54.5 -80t20 -96.5q0 -52 -20 -97.5t-54 -79.5t-80 -54t-97 -20q-52 0 -98 19.5t-80 53.5t-53.5 80t-19.5 98z" />
<glyph unicode="&#x2026;" horiz-adv-x="2048" d="M230 83q0 24 9 44t24 35t35 23.5t43 8.5t43 -8.5t35 -23.5t24 -35.5t9 -43.5t-9 -43t-24 -35t-35 -24t-43 -9t-43 9t-35 24t-24 35t-9 43zM913 83q0 24 9 44t24 35t35 23.5t43 8.5t43 -9t35 -24t24 -35t9 -43t-9 -43t-24 -35t-35 -24t-43 -9t-43 9t-35 24t-24 35t-9 43z M1596 83q0 48 31.5 79.5t79.5 31.5q23 0 43 -9t35 -24t24 -35t9 -43t-9 -43t-24 -35t-35 -24t-43 -9t-43 9t-35 24t-24 35t-9 43z" />
<glyph unicode="&#x202f;" horiz-adv-x="354" />
<glyph unicode="&#x2039;" horiz-adv-x="682" d="M119 464l387 470h57l-244 -470l244 -472h-57z" />
<glyph unicode="&#x203a;" horiz-adv-x="682" d="M115 -8l243 470l-243 472h58l394 -472l-394 -470h-58z" />
<glyph unicode="&#x205f;" horiz-adv-x="443" />
<glyph unicode="&#x20ac;" d="M-23 576l23 78h74v16q0 15 0.5 31.5t1.5 35.5h-99l23 78h84q34 236 162 391q147 178 376 178q171 0 340 -88v-299h-39q-26 321 -301 321q-71 0 -128.5 -34.5t-101 -99.5t-72 -158t-41.5 -211h591l-23 -78h-574q-3 -42 -3 -83h552l-23 -78h-527q4 -114 29 -208.5t67 -163 t100 -106.5t128 -38q134 0 224 69q55 41 137 156l31 -20q-43 -69 -82 -117t-74 -77q-116 -95 -276 -95q-104 0 -188 41t-144.5 118t-97.5 188.5t-48 252.5h-101z" />
<glyph unicode="&#x2122;" horiz-adv-x="2007" d="M30 1155l21 201h728l22 -201h-34q-5 36 -17.5 62.5t-35 44t-57.5 26t-84 8.5h-75v-579q0 -43 4 -68.5t15.5 -39t32.5 -18.5t54 -6v-36h-374v36q33 3 53 8.5t30.5 19.5t13.5 38t3 65v580h-76q-47 0 -80 -7.5t-55 -24t-35 -43.5t-20 -66h-34zM870 549v36q41 0 64 5.5 t34 19.5t13 39.5t2 66.5v466q0 43 -2 70t-13 42t-33.5 20t-64.5 5v37h286l273 -572l265 572h279v-37q-40 -1 -62 -6t-33 -19t-13.5 -40.5t-2.5 -69.5v-468q0 -43 3.5 -68t15 -38.5t33.5 -18t59 -6.5v-36h-398v36q45 1 69 7.5t35 21.5t13 39.5t2 61.5v492l-307 -658h-32 l-308 649v-482q0 -41 3 -66.5t13 -39.5t28.5 -19.5t48.5 -5.5h36v-36h-306z" />
<glyph unicode="&#xe000;" horiz-adv-x="915" d="M0 0v915h915v-915h-915z" />
</font>
</defs>
</svg>
